<?xml version="1.0" standalone="no"?>
<!DOCTYPE svg PUBLIC "-//W3C//DTD SVG 1.1//EN" "http://www.w3.org/Graphics/SVG/1.1/DTD/svg11.dtd" >
<svg xmlns="http://www.w3.org/2000/svg" xmlns:xlink="http://www.w3.org/1999/xlink" version="1.1">
<metadata>
Created by FontForge 20161003 at Tue Sep 25 14:18:53 2018
 By www-data
</metadata>
<defs>
<font id="DIN-Light" horiz-adv-x="1053" >
  <font-face 
    font-family="DIN Light"
    font-weight="300"
    font-stretch="normal"
    units-per-em="2048"
    panose-1="2 2 5 0 0 0 0 0 0 0"
    ascent="1638"
    descent="-410"
    x-height="987"
    cap-height="1458"
    bbox="-205 -483 2251 1997"
    underline-thickness="38"
    underline-position="-160"
    unicode-range="U+0020-2219"
  />
<missing-glyph horiz-adv-x="1536" 
d="M256 0v1280h1024v-1280h-1024zM1247 33v1214h-958v-1214h958z" />
    <glyph glyph-name=".notdef" horiz-adv-x="1536" 
d="M256 0v1280h1024v-1280h-1024zM1247 33v1214h-958v-1214h958z" />
    <glyph glyph-name=".null" horiz-adv-x="0" 
 />
    <glyph glyph-name="nonmarkingreturn" horiz-adv-x="0" 
 />
    <glyph glyph-name="Eth" unicode="&#xd0;" horiz-adv-x="1411" 
d="M1243 729q0 -177 -7 -266.5t-22.5 -134t-48.5 -97.5q-67 -104 -178.5 -167.5t-261.5 -63.5h-477v692h-166v86h166v680h491q143 0 251 -60.5t175 -174.5q36 -62 51.5 -110t21 -128.5t5.5 -255.5zM1133 719q0 226 -13 316t-69 165q-64 87 -145.5 124.5t-194.5 37.5h-353
v-584h365v-86h-365v-596h353q239 0 352 166q48 71 59 150t11 307z" />
    <glyph glyph-name="eth" unicode="&#xf0;" horiz-adv-x="1077" 
d="M936 494q0 -79 -10 -150t-37 -135t-76 -113q-110 -108 -274 -108q-165 0 -275 108q-49 49 -76 112.5t-37 133.5t-10 152q0 124 26 225t97 172q108 108 275 108q95 0 153 -34l-137 231h-240v78h195l-109 184h109l106 -184h162v-78h-116l147 -252q79 -134 103 -224t24 -226
zM831 494q0 114 -16.5 194t-71.5 135q-82 84 -204 84q-123 0 -205 -84q-55 -55 -71.5 -137.5t-16.5 -191.5q0 -108 16.5 -191.5t71.5 -138.5q84 -84 205 -84q120 0 204 84q55 55 71.5 135.5t16.5 194.5z" />
    <glyph glyph-name="Lslash" horiz-adv-x="1184" 
d="M1122 0h-884v627l-156 -99v99l156 98v733h110v-663l336 213v-99l-336 -213v-598h774v-98z" />
    <glyph glyph-name="lslash" horiz-adv-x="631" 
d="M545 0h-90q-115 0 -176.5 69t-61.5 187v473l-135 -84v92l135 84v637h105v-571l180 112v-92l-180 -112v-537q0 -86 33.5 -126t117.5 -40h72v-92z" />
    <glyph glyph-name="Scaron" unicode="&#x160;" horiz-adv-x="1202" 
d="M1081 391q0 -90 -33.5 -165.5t-97 -128t-156 -81t-204.5 -28.5q-104 0 -190 20t-158 63t-138 109l78 78q66 -66 127 -103.5t131 -53t156 -15.5q115 0 199 35.5t130 104t46 161.5q0 134 -80 205q-37 32 -82 48.5t-129 29.5l-170 26q-166 25 -260 107q-115 96 -115 268
q0 92 32.5 166.5t90.5 126t143 79t187 27.5q133 0 229 -37.5t191 -119.5l-72 -72q-77 69 -155.5 102t-198.5 33q-158 0 -248 -81t-90 -220q0 -127 75 -190q41 -33 100.5 -57.5t117.5 -32.5l157 -25q101 -15 158 -36t102 -60q62 -51 94.5 -123.5t32.5 -159.5zM895 1898
l-252 -301h-110l-252 301h117l190 -223l190 223h117z" />
    <glyph glyph-name="scaron" unicode="&#x161;" horiz-adv-x="1012" 
d="M897 281q0 -89 -48.5 -155.5t-138 -102t-208.5 -35.5q-252 0 -400 141l72 72q115 -121 324 -121q144 0 220.5 50.5t76.5 150.5q0 76 -46 116t-143 49l-164 15q-297 24 -297 258q0 84 43.5 147.5t123.5 98t188 34.5q104 0 193 -27.5t153 -76.5l-70 -70q-114 84 -276 84
q-122 0 -187 -50t-65 -140q0 -78 48.5 -117.5t152.5 -48.5l159 -14q138 -12 213.5 -68t75.5 -190zM807 1509l-252 -301h-110l-252 301h117l190 -223l190 223h117z" />
    <glyph glyph-name="Yacute" unicode="&#xdd;" horiz-adv-x="1012" 
d="M991 1458l-430 -854v-604h-110v604l-431 854h119l371 -737l362 737h119zM746 1898l-217 -301h-119l198 301h138z" />
    <glyph glyph-name="yacute" unicode="&#xfd;" horiz-adv-x="881" 
d="M852 987l-459 -1255q-26 -79 -67 -115q-67 -63 -187 -63h-49v92h39q56 0 88 13t53 43t39 79l80 219l-360 987h114l297 -864l297 864h115zM680 1509l-217 -301h-119l198 301h138z" />
    <glyph glyph-name="Thorn" unicode="&#xde;" horiz-adv-x="1323" 
d="M1200 735q0 -195 -123.5 -307.5t-316.5 -112.5h-424v-315h-111v1458h111v-303h424q97 0 176.5 -27.5t138.5 -82.5t92 -134.5t33 -175.5zM1090 735q0 160 -92.5 241t-249.5 81h-412v-643h412q156 0 249 80.5t93 240.5z" />
    <glyph glyph-name="thorn" unicode="&#xfe;" horiz-adv-x="1106" 
d="M965 494q0 -293 -127 -420q-88 -86 -242 -86q-92 0 -162.5 30t-130.5 109v-598h-104v1929h104v-598q58 79 129.5 109t163.5 30q77 0 139 -22.5t103 -63.5q127 -127 127 -419zM860 494q0 187 -57 300t-221 113q-165 0 -222 -113t-57 -300q0 -188 57 -301t222 -113
q164 0 221 113t57 301z" />
    <glyph glyph-name="Zcaron" horiz-adv-x="1145" 
d="M1016 0h-887v117l768 1243h-737v98h856v-98l-774 -1262h774v-98zM895 1898l-252 -301h-110l-252 301h117l190 -223l190 223h117z" />
    <glyph glyph-name="zcaron" horiz-adv-x="926" 
d="M815 0h-704v98l594 797h-562v92h672v-98l-596 -797h596v-92zM786 1509l-252 -301h-110l-252 301h117l190 -223l190 223h117z" />
    <glyph glyph-name="onehalf" unicode="&#xbd;" horiz-adv-x="1565" 
d="M1462 0h-483v82l344 436q47 61 47 127q0 71 -39.5 113.5t-109.5 42.5q-66 0 -109 -37.5t-43 -118.5h-90q0 105 66.5 171.5t175.5 66.5q108 0 174.5 -64t66.5 -174q0 -53 -15.5 -91t-53.5 -87l-306 -385h375v-82zM1085 1458l-679 -1458h-93l680 1458h92zM346 584h-90v774
l-164 -146v105l164 141h90v-874z" />
    <glyph glyph-name="onequarter" unicode="&#xbc;" horiz-adv-x="1548" 
d="M1466 137h-106v-137h-90v137h-348v82l315 655h96l-313 -655h250v246h90v-246h106v-82zM1116 1458l-680 -1458h-92l680 1458h92zM346 584h-90v774l-164 -146v105l164 141h90v-874z" />
    <glyph glyph-name="onesuperior" unicode="&#xb9;" horiz-adv-x="510" 
d="M346 584h-90v774l-164 -146v105l164 141h90v-874z" />
    <glyph glyph-name="threequarters" unicode="&#xbe;" horiz-adv-x="1651" 
d="M1569 137h-107v-137h-90v137h-348v82l315 655h97l-314 -655h250v246h90v-246h107v-82zM1239 1458l-680 -1458h-92l680 1458h92zM618 823q0 -79 -33.5 -135.5t-92 -85.5t-130.5 -29q-109 0 -181.5 60t-78.5 174h93q4 -76 51.5 -114t115.5 -38q72 0 119 45.5t47 122.5
q0 166 -172 166h-16v80h16q156 0 156 158q0 51 -20 86t-55 53t-77 18q-68 0 -108.5 -38t-46.5 -105h-90q7 104 75.5 164.5t169.5 60.5q73 0 127.5 -29.5t84.5 -83t30 -124.5q0 -142 -117 -195q133 -50 133 -211z" />
    <glyph glyph-name="threesuperior" unicode="&#xb3;" horiz-adv-x="721" 
d="M618 823q0 -79 -33.5 -135.5t-92 -85.5t-130.5 -29q-109 0 -181.5 60t-78.5 174h93q4 -76 51.5 -114t115.5 -38q72 0 119 45.5t47 122.5q0 166 -172 166h-16v80h16q156 0 156 158q0 51 -20 86t-55 53t-77 18q-68 0 -108.5 -38t-46.5 -105h-90q7 104 75.5 164.5
t169.5 60.5q73 0 127.5 -29.5t84.5 -83t30 -124.5q0 -142 -117 -195q133 -50 133 -211z" />
    <glyph glyph-name="twosuperior" unicode="&#xb2;" horiz-adv-x="688" 
d="M586 584h-484v82l344 436q48 63 48 127q0 71 -39.5 113t-110.5 42q-66 0 -108.5 -38t-42.5 -117h-91q0 70 30 123.5t85.5 83.5t126.5 30q108 0 175 -64.5t67 -172.5q0 -53 -16 -92t-54 -86l-305 -385h375v-82z" />
    <glyph glyph-name="brokenbar" unicode="&#xa6;" horiz-adv-x="672" 
d="M377 893h-105v717h105v-717zM377 -152h-105v717h105v-717z" />
    <glyph glyph-name="minus" unicode="&#xad;" 
d="M944 492h-835v96h835v-96z" />
    <glyph glyph-name="multiply" unicode="&#xd7;" 
d="M907 223l-63 -63l-318 317l-317 -317l-64 63l318 318l-318 317l64 64l317 -318l318 318l63 -64l-317 -317z" />
    <glyph glyph-name="space" unicode=" " horiz-adv-x="522" 
 />
    <glyph glyph-name="exclam" unicode="!" horiz-adv-x="623" 
d="M397 1458l-6 -1065h-100l-6 1065h112zM410 0h-138v137h138v-137z" />
    <glyph glyph-name="quotedbl" unicode="&#x22;" horiz-adv-x="836" 
d="M641 1139h-129v319h129v-319zM324 1139h-129v319h129v-319z" />
    <glyph glyph-name="numbersign" unicode="#" horiz-adv-x="1309" 
d="M1204 895h-205l-51 -313h197v-90h-211l-78 -492h-104l79 492h-360l-76 -492h-104l78 492h-197v90h211l51 313h-203v92h215l74 471h107l-76 -471h358l74 471h102l-73 -471h192v-92zM895 895h-358l-52 -313h359z" />
    <glyph glyph-name="dollar" unicode="$" horiz-adv-x="1202" 
d="M1081 391q0 -115 -54 -203.5t-154.5 -139.5t-237.5 -58v-223h-92v221q-140 6 -241 51.5t-198 140.5l78 78q91 -89 170.5 -126.5t190.5 -43.5v604l-33 4q-79 12 -147 41.5t-113 65.5q-115 98 -115 268q0 84 28.5 155t80.5 122.5t127.5 82.5t171.5 37v183h92v-183
q78 -5 140.5 -22.5t118 -49.5t114.5 -83l-72 -72q-68 61 -135.5 93.5t-165.5 39.5v-594l59 -10q98 -17 158.5 -38.5t101.5 -57.5q62 -51 94.5 -123.5t32.5 -159.5zM543 795v579q-95 -8 -161.5 -46t-102 -102.5t-35.5 -150.5q0 -127 75 -190q84 -72 224 -90zM971 387
q0 134 -80 205q-50 44 -96 56t-160 28v-588q102 6 178.5 43.5t117 102t40.5 153.5z" />
    <glyph glyph-name="percent" unicode="%" horiz-adv-x="1696" 
d="M1554 260q0 -80 -33.5 -142t-94 -97t-140.5 -35q-119 0 -194.5 77t-75.5 197v219q0 121 75 198t195 77q80 0 140.5 -35t94 -97.5t33.5 -142.5v-219zM1235 1458l-680 -1458h-92l680 1458h92zM680 979q0 -119 -74.5 -195.5t-193.5 -76.5q-120 0 -195.5 76.5t-75.5 195.5
v219q0 80 34 142.5t95.5 97.5t141.5 35q78 0 139 -35t95 -97.5t34 -142.5v-219zM1464 264v211q0 95 -43.5 148t-134.5 53q-180 0 -180 -201v-211q0 -201 180 -201q91 0 134.5 53t43.5 148zM590 983v211q0 95 -43.5 148t-134.5 53q-93 0 -137 -53t-44 -148v-211
q0 -199 181 -199q90 0 134 52.5t44 146.5z" />
    <glyph glyph-name="ampersand" unicode="&#x26;" horiz-adv-x="1528" 
d="M1356 0h-142l-141 172q-191 -184 -448 -184q-130 0 -234 52t-161.5 147t-57.5 216q0 108 45 188.5t109.5 134t179.5 130.5q-47 55 -82 104t-57.5 105t-22.5 115q0 122 86.5 206t210.5 84q81 0 149 -38.5t108 -106t40 -147.5q0 -150 -168 -263q5 0 -108 -73l417 -506
q35 54 52.5 100.5t25.5 105t8 156.5h109q0 -288 -127 -444zM829 1178q0 84 -53.5 139t-134.5 55q-78 0 -132 -54t-54 -134q0 -54 29.5 -109.5t113.5 -159.5q10 7 32.5 22.5t34 23.5t17.5 12q72 49 109.5 94.5t37.5 110.5zM1012 248l-443 534q-106 -73 -156.5 -113.5
t-90 -106t-39.5 -152.5q0 -144 95 -234t245 -90q97 0 190.5 35t198.5 127z" />
    <glyph glyph-name="quotesingle" unicode="'" horiz-adv-x="518" 
d="M324 1139h-129v319h129v-319z" />
    <glyph glyph-name="parenleft" unicode="(" horiz-adv-x="582" 
d="M444 -121l-71 -72q-65 65 -90 95t-45 69q-39 76 -39 191v1134q0 115 39 191q20 41 45 70t90 94l71 -72q-54 -54 -74 -76t-36 -57q-31 -63 -31 -162v-1110q0 -99 31 -162q10 -21 27.5 -44t39.5 -45t43 -44z" />
    <glyph glyph-name="parenright" unicode=")" horiz-adv-x="582" 
d="M383 162q0 -120 -39 -191q-21 -41 -49.5 -74t-85.5 -90l-76 76q54 54 75 78.5t36 54.5q28 60 28 158v1110q0 98 -28 158q-15 33 -44 65t-67 68l76 76q57 -57 85.5 -89t49.5 -75q39 -71 39 -191v-1134z" />
    <glyph glyph-name="asterisk" unicode="*" horiz-adv-x="956" 
d="M809 975l-45 -78l-246 150l6 -289h-92l6 289l-245 -150l-46 78l252 139l-252 139l46 78l245 -149l-6 288h92l-6 -288l246 149l45 -78l-252 -139z" />
    <glyph glyph-name="plus" unicode="+" 
d="M944 492h-369v-371h-96v371h-370v96h370v368h96v-368h369v-96z" />
    <glyph glyph-name="comma" unicode="," horiz-adv-x="528" 
d="M334 -139l-139 -140v418h139v-278z" />
    <glyph glyph-name="hyphen" unicode="-" horiz-adv-x="872" 
d="M705 492h-537v96h537v-96z" />
    <glyph glyph-name="period" unicode="." horiz-adv-x="541" 
d="M346 0h-151v152h151v-152z" />
    <glyph glyph-name="slash" unicode="/" horiz-adv-x="692" 
d="M692 1610l-583 -1762h-109l584 1762h108z" />
    <glyph glyph-name="zero" unicode="0" 
d="M909 377q0 -114 -48.5 -201.5t-136.5 -137.5t-198 -50t-198 50t-136.5 137.5t-48.5 201.5v704q0 84 28.5 156t79 124.5t121 80.5t154.5 28q85 0 155.5 -28t121.5 -80.5t78.5 -124.5t27.5 -156v-704zM805 387v684q0 135 -73.5 221t-205.5 86q-131 0 -204.5 -86t-73.5 -221
v-684q0 -135 73.5 -221t204.5 -86q132 0 205.5 86t73.5 221z" />
    <glyph glyph-name="one" unicode="1" 
d="M641 0h-104v1339l-265 -233v125l265 227h104v-1458z" />
    <glyph glyph-name="two" unicode="2" 
d="M920 0h-773v92l586 768q82 105 82 227q0 88 -33.5 153.5t-97 101.5t-149.5 36q-123 0 -202 -72.5t-79 -218.5h-104q0 168 103.5 275.5t281.5 107.5q88 0 159.5 -27.5t121.5 -77t77 -120t27 -158.5q0 -81 -23 -145t-78 -135l-547 -715h648v-92z" />
    <glyph glyph-name="three" unicode="3" 
d="M915 389q0 -126 -53.5 -217.5t-148.5 -138.5t-211 -47q-179 0 -292.5 93t-123.5 275h104q11 -140 99.5 -208t212.5 -68q134 0 221.5 84.5t87.5 226.5q0 153 -76 232t-241 79h-25v93h25q95 0 160 34t96.5 98.5t31.5 159.5q0 70 -21.5 126.5t-59.5 93.5t-88.5 56t-112.5 19
q-126 0 -201.5 -71t-89.5 -195h-105q16 167 125.5 263t270.5 96q113 0 201 -48t137 -135.5t49 -204.5q0 -244 -207 -331q235 -81 235 -365z" />
    <glyph glyph-name="four" unicode="4" 
d="M965 240h-195v-240h-104v240h-578v92l537 1126h110l-536 -1126h467v463h104v-463h195v-92z" />
    <glyph glyph-name="five" unicode="5" 
d="M924 477q0 -132 -21.5 -224t-91.5 -163q-106 -104 -281 -104q-186 0 -280 98q-86 86 -98 238h104q15 -120 82.5 -182t191.5 -62q59 0 114 20t87 54q57 57 72.5 134t15.5 191q0 172 -55.5 280.5t-216.5 108.5q-100 0 -171 -40.5t-93 -112.5h-93v745h701v-92h-608v-516
q92 108 276 108q160 0 246 -88q70 -70 94.5 -169t24.5 -224z" />
    <glyph glyph-name="six" unicode="6" 
d="M918 412q0 -87 -25.5 -164t-75 -136t-122 -91.5t-163.5 -32.5q-180 0 -283.5 113.5t-103.5 295.5q0 71 18.5 141.5t63.5 163.5l375 756h105l-336 -674q72 35 170 35q117 0 202.5 -54t130 -146t44.5 -207zM813 403q0 139 -74.5 231.5t-208.5 92.5q-129 0 -204.5 -87.5
t-75.5 -236.5q0 -147 75.5 -235t204.5 -88q84 0 149 40.5t99.5 113t34.5 169.5z" />
    <glyph glyph-name="seven" unicode="7" 
d="M940 1366l-516 -1366h-107l517 1366h-553v-229h-105v321h764v-92z" />
    <glyph glyph-name="eight" unicode="8" 
d="M942 393q0 -114 -55 -207t-149.5 -145.5t-211.5 -52.5q-116 0 -210.5 52.5t-149.5 145.5t-55 207q0 122 61.5 214.5t169.5 150.5q-99 54 -150 137t-51 195q0 80 28 149.5t79 121t122.5 80.5t155.5 29q112 0 199.5 -49.5t136.5 -136.5t49 -194q0 -113 -50 -196t-148 -136
q71 -39 122.5 -92t79 -122t27.5 -151zM807 1090q0 82 -36 148.5t-99 103t-146 36.5t-146.5 -37t-98.5 -103.5t-35 -147.5q0 -127 78 -208t202 -81q83 0 146.5 37t99 103t35.5 149zM838 393q0 68 -23 124.5t-65.5 100t-99 67.5t-124.5 24q-86 0 -157.5 -41.5t-112.5 -114.5
t-41 -160q0 -132 89.5 -222.5t221.5 -90.5q85 0 157.5 41t113.5 113.5t41 158.5z" />
    <glyph glyph-name="nine" unicode="9" 
d="M907 1061q0 -140 -82 -305l-374 -756h-105l336 674q-72 -35 -172 -35q-117 0 -202 53.5t-129 146.5t-44 208q0 87 26 164.5t75 135.5t122 90.5t162 32.5q120 0 207.5 -52t133.5 -146.5t46 -210.5zM803 1055q0 97 -34.5 169.5t-99.5 113t-149 40.5q-129 0 -204.5 -88
t-75.5 -235q0 -90 32 -163.5t96 -117t152 -43.5q84 0 149 40t99.5 113t34.5 171z" />
    <glyph glyph-name="colon" unicode=":" horiz-adv-x="598" 
d="M403 639h-151v152h151v-152zM403 0h-151v152h151v-152z" />
    <glyph glyph-name="semicolon" unicode=";" horiz-adv-x="598" 
d="M403 639h-151v152h151v-152zM395 -139l-139 -140v418h139v-278z" />
    <glyph glyph-name="less" unicode="&#x3c;" horiz-adv-x="2103" 
d="M1987 487h-1678l776 -776h-141l-827 828l827 827h141l-776 -776h1678v-103z" />
    <glyph glyph-name="equal" unicode="=" 
d="M944 647h-835v96h835v-96zM944 334h-835v96h835v-96z" />
    <glyph glyph-name="greater" unicode="&#x3e;" horiz-adv-x="2103" 
d="M1987 539l-828 -828h-141l776 776h-1677v103h1677l-776 776h141z" />
    <glyph glyph-name="question" unicode="?" horiz-adv-x="999" 
d="M897 1110q0 -112 -90 -244l-174 -256q-37 -53 -37 -123v-96h-104v92q0 54 13.5 95.5t45.5 89.5l172 254q36 53 53 93t17 95q0 76 -34.5 137t-94.5 96t-134 35q-75 0 -135.5 -36.5t-93.5 -98t-33 -133.5h-104q0 98 46.5 180.5t129.5 131t190 48.5q102 0 186 -46.5
t132.5 -129t48.5 -184.5zM612 0h-137v137h137v-137z" />
    <glyph glyph-name="at" unicode="@" horiz-adv-x="1427" 
d="M1270 0h-105v121q-32 -45 -74 -75.5t-95 -45t-115 -14.5q-88 0 -162 35t-123 98q-48 65 -68 149.5t-20 225.5q0 132 18.5 220.5t61.5 149.5q45 64 122.5 100.5t168.5 36.5q94 0 163.5 -34t122.5 -105v182q0 90 -18.5 143.5t-65.5 100.5q-44 45 -99 65.5t-134 20.5h-270
q-78 0 -132 -20t-100 -66q-30 -30 -49 -63t-27 -75t-8 -106v-722q0 -47 5 -85.5t20.5 -71t37.5 -54.5t64 -54l-72 -71q-48 34 -79 65.5t-48.5 68.5t-24.5 84.5t-7 117.5v716q0 193 112 310q51 53 126 81.5t163 28.5h307q177 0 289 -110q57 -57 86 -134.5t29 -175.5v-1038z
M1165 494q0 121 -20 210t-80.5 147t-175.5 58q-165 0 -221 -113.5t-56 -301.5q0 -122 19.5 -210.5t81 -147t176.5 -58.5t175.5 58t80.5 147t20 211z" />
    <glyph glyph-name="A" unicode="A" horiz-adv-x="1233" 
d="M1202 0h-119l-127 354h-680l-126 -354h-119l536 1458h99zM922 453l-306 858l-305 -858h611z" />
    <glyph glyph-name="B" unicode="B" horiz-adv-x="1374" 
d="M1206 397q0 -191 -115 -294t-313 -103h-553v1458h537q123 0 218.5 -45.5t149.5 -132.5t54 -203q0 -115 -61 -203t-167 -124q120 -41 185 -133.5t65 -219.5zM1073 1077q0 96 -42.5 159.5t-115.5 93.5t-165 30h-414v-565h414q142 0 232.5 70.5t90.5 211.5zM1096 397
q0 93 -40.5 160t-114.5 103t-175 36h-430v-598h430q101 0 175 36t114.5 103.5t40.5 159.5z" />
    <glyph glyph-name="C" unicode="C" horiz-adv-x="1319" 
d="M1163 414q-24 -132 -92 -228t-172.5 -147t-230.5 -51q-104 0 -199 39t-166 110q-65 65 -93 137t-35 165t-7 290t7 290t35 165t93 137q71 71 165.5 110t199.5 39q128 0 232 -51t171.5 -146.5t91.5 -228.5h-112q-32 152 -134.5 240t-248.5 88q-78 0 -149.5 -28t-127.5 -84
q-39 -39 -60.5 -81t-33.5 -106t-15 -146t-3 -198q0 -173 7 -263.5t31 -153.5t74 -113q55 -55 127 -84t150 -29q97 0 176.5 39.5t135 115t75.5 173.5h108z" />
    <glyph glyph-name="D" unicode="D" horiz-adv-x="1389" 
d="M1221 750v-48q0 -192 -26.5 -336t-115.5 -233q-43 -43 -99 -72.5t-122.5 -45t-142.5 -15.5h-490v1458h490q76 0 142.5 -15.5t122 -44.5t99.5 -73q90 -89 116 -218.5t26 -311.5v-45zM1110 750v61q0 154 -20 260.5t-89 175.5q-109 113 -313 113h-352v-1262h352
q204 0 313 113q69 69 89 188.5t20 286.5v64z" />
    <glyph glyph-name="E" unicode="E" horiz-adv-x="1225" 
d="M1110 0h-885v1458h885v-98h-774v-576h659v-98h-659v-588h774v-98z" />
    <glyph glyph-name="F" unicode="F" horiz-adv-x="1180" 
d="M1110 1360h-774v-600h659v-98h-659v-662h-111v1458h885v-98z" />
    <glyph glyph-name="G" unicode="G" horiz-adv-x="1333" 
d="M1169 508q0 -226 -118 -352q-72 -80 -172 -124t-211 -44q-104 0 -199 39t-166 110q-65 65 -93 137t-35 165t-7 290t7 290t35 165t93 137q71 71 165.5 110t199.5 39q192 0 328 -116.5t169 -309.5h-110q-20 98 -75.5 173.5t-135 115t-176.5 39.5q-78 0 -149.5 -28
t-127.5 -84q-39 -39 -60.5 -81t-33.5 -106t-15 -146t-3 -198q0 -173 7 -263.5t31 -153.5t74 -113q55 -55 127 -84t150 -29q88 0 167.5 36.5t135.5 104.5q47 58 67.5 126t20.5 163v131h-391v98h501v-237z" />
    <glyph glyph-name="H" unicode="H" horiz-adv-x="1432" 
d="M1206 0h-110v686h-760v-686h-111v1458h111v-674h760v674h110v-1458z" />
    <glyph glyph-name="I" unicode="I" horiz-adv-x="561" 
d="M336 0h-111v1458h111v-1458z" />
    <glyph glyph-name="J" unicode="J" horiz-adv-x="1020" 
d="M815 430q0 -131 -53 -231.5t-151.5 -155.5t-229.5 -55q-195 0 -320 125l76 75q38 -36 66.5 -56t72.5 -33t105 -13q158 0 241 95.5t83 271.5v1005h110v-1028z" />
    <glyph glyph-name="K" unicode="K" horiz-adv-x="1321" 
d="M1284 0h-131l-469 817l-348 -422v-395h-111v1458h111v-911l739 911h133l-450 -557z" />
    <glyph glyph-name="L" unicode="L" horiz-adv-x="1171" 
d="M1110 0h-885v1458h111v-1360h774v-98z" />
    <glyph glyph-name="M" unicode="M" horiz-adv-x="1675" 
d="M1450 0h-111v1202l-442 -997h-111l-450 997v-1202h-111v1458h111l508 -1124l495 1124h111v-1458z" />
    <glyph glyph-name="N" unicode="N" horiz-adv-x="1513" 
d="M1288 0h-110l-842 1268v-1268h-111v1458h111l842 -1263v1263h110v-1458z" />
    <glyph glyph-name="O" unicode="O" horiz-adv-x="1335" 
d="M1167 729q0 -197 -7 -290t-35 -165t-93 -137q-71 -71 -165.5 -110t-198.5 -39t-199 39t-166 110q-65 65 -93 137t-35 165t-7 290t7 290t35 165t93 137q71 71 165.5 110t199.5 39t199 -39t165 -110q65 -65 93 -137t35 -165t7 -290zM1057 729q0 173 -7 264t-31 153.5
t-75 113.5q-56 56 -126.5 84t-149.5 28q-78 0 -149.5 -28t-127.5 -84q-39 -39 -60.5 -81t-33.5 -106t-15 -146t-3 -198q0 -173 7 -263.5t31 -153.5t74 -113q55 -55 127 -84t150 -29q79 0 150 29t126 84q52 52 75.5 114t30.5 152.5t7 263.5z" />
    <glyph glyph-name="P" unicode="P" horiz-adv-x="1292" 
d="M1200 1038q0 -195 -123.5 -307.5t-316.5 -112.5h-424v-618h-111v1458h535q97 0 176.5 -27.5t138.5 -81.5t92 -134t33 -177zM1090 1038q0 160 -92.5 241t-249.5 81h-412v-643h412q156 0 249 80.5t93 240.5z" />
    <glyph glyph-name="Q" unicode="Q" horiz-adv-x="1333" 
d="M1235 0l-74 -74l-172 172q-139 -110 -321 -110q-104 0 -199 39t-166 110q-65 65 -93 137t-35 165t-7 290t7 290t35 165t93 137q71 71 165.5 110t199.5 39t199 -39t165 -110q65 -65 93 -137t35 -165t7 -290q0 -182 -5 -269.5t-27 -158t-72 -129.5zM1057 729q0 173 -7 264
t-31 153.5t-75 113.5q-56 56 -126.5 84t-149.5 28q-78 0 -149.5 -28t-127.5 -84q-39 -39 -60.5 -81t-33.5 -106t-15 -146t-3 -198q0 -173 7 -263.5t31 -153.5t74 -113q55 -55 127 -84t150 -29q139 0 247 86l-204 205l73 74l203 -203q46 68 58 163.5t12 317.5z" />
    <glyph glyph-name="R" unicode="R" horiz-adv-x="1346" 
d="M1214 0h-129l-348 672h-401v-672h-111v1458h555q121 0 215.5 -45.5t148.5 -134t54 -211.5q0 -160 -89.5 -263t-246.5 -130zM1087 1065q0 145 -87.5 220t-233.5 75h-430v-590h430q71 0 130 18.5t101 54.5t66 92t24 130z" />
    <glyph glyph-name="S" unicode="S" horiz-adv-x="1202" 
d="M1081 391q0 -90 -33.5 -165.5t-97 -128t-156 -81t-204.5 -28.5q-104 0 -190 20t-158 63t-138 109l78 78q66 -66 127 -103.5t131 -53t156 -15.5q115 0 199 35.5t130 104t46 161.5q0 134 -80 205q-37 32 -82 48.5t-129 29.5l-170 26q-166 25 -260 107q-115 96 -115 268
q0 92 32.5 166.5t90.5 126t143 79t187 27.5q133 0 229 -37.5t191 -119.5l-72 -72q-77 69 -155.5 102t-198.5 33q-158 0 -248 -81t-90 -220q0 -127 75 -190q41 -33 100.5 -57.5t117.5 -32.5l157 -25q101 -15 158 -36t102 -60q62 -51 94.5 -123.5t32.5 -159.5z" />
    <glyph glyph-name="T" unicode="T" horiz-adv-x="1104" 
d="M1042 1360h-436v-1360h-110v1360h-435v98h981v-98z" />
    <glyph glyph-name="U" unicode="U" horiz-adv-x="1409" 
d="M1204 473q0 -140 -63.5 -251t-177 -172.5t-258.5 -61.5q-144 0 -258.5 61.5t-178 172.5t-63.5 251v985h110v-971q0 -120 48.5 -210.5t137.5 -140.5t204 -50q113 0 202.5 50t138 140.5t48.5 210.5v971h110v-985z" />
    <glyph glyph-name="V" unicode="V" horiz-adv-x="1094" 
d="M1073 1458l-479 -1458h-94l-480 1458h117l410 -1263l409 1263h117z" />
    <glyph glyph-name="W" unicode="W" horiz-adv-x="1724" 
d="M1683 1458l-364 -1458h-113l-344 1270l-344 -1270h-112l-365 1458h117l307 -1268l340 1268h115l340 -1268l307 1268h116z" />
    <glyph glyph-name="X" unicode="X" horiz-adv-x="1090" 
d="M1053 0h-129l-381 649l-381 -649h-125l446 748l-417 710h129l348 -612l350 612h127l-418 -710z" />
    <glyph glyph-name="Y" unicode="Y" horiz-adv-x="1012" 
d="M991 1458l-430 -854v-604h-110v604l-431 854h119l371 -737l362 737h119z" />
    <glyph glyph-name="Z" unicode="Z" horiz-adv-x="1145" 
d="M1016 0h-887v117l768 1243h-737v98h856v-98l-774 -1262h774v-98z" />
    <glyph glyph-name="bracketleft" unicode="[" horiz-adv-x="594" 
d="M502 -152h-303v1762h303v-92h-199v-1577h199v-93z" />
    <glyph glyph-name="backslash" unicode="\" horiz-adv-x="692" 
d="M692 -152h-108l-584 1762h109z" />
    <glyph glyph-name="bracketright" unicode="]" horiz-adv-x="594" 
d="M395 -152h-303v86h205v1590h-205v86h303v-1762z" />
    <glyph glyph-name="asciicircum" unicode="^" 
d="M897 864h-104l-267 496l-266 -496h-104l323 606h94z" />
    <glyph glyph-name="underscore" unicode="_" 
d="M1053 -328h-1053v78h1053v-78z" />
    <glyph glyph-name="grave" unicode="`" horiz-adv-x="1024" 
d="M608 1208h-119l-217 301h138z" />
    <glyph glyph-name="a" unicode="a" horiz-adv-x="1073" 
d="M883 0h-105v98q-62 -62 -129 -86t-172 -24q-71 0 -126 9t-94.5 29t-70.5 52q-71 74 -71 192q0 136 91.5 210.5t252.5 74.5h319v111q0 122 -65.5 181.5t-212.5 59.5q-104 0 -165 -28.5t-108 -96.5l-75 66q42 59 91 91t112.5 46t144.5 14q383 0 383 -323v-676zM778 344v127
h-307q-252 0 -252 -199q0 -98 62.5 -145t195.5 -47q81 0 139.5 14.5t106.5 61.5q55 51 55 188z" />
    <glyph glyph-name="b" unicode="b" horiz-adv-x="1106" 
d="M965 494q0 -293 -127 -420q-88 -86 -242 -86q-92 0 -162.5 30t-130.5 109v-127h-104v1458h104v-598q58 79 129.5 109t163.5 30q77 0 139 -22.5t103 -63.5q127 -127 127 -419zM860 494q0 187 -57 300t-221 113q-165 0 -222 -113t-57 -300q0 -188 57 -301t222 -113
q164 0 221 113t57 301z" />
    <glyph glyph-name="c" unicode="c" horiz-adv-x="1010" 
d="M901 139q-79 -87 -151 -119t-175 -32q-99 0 -178.5 34.5t-137.5 101.5t-88 162t-30 208q0 157 52.5 270t150.5 174t231 61q106 0 177.5 -32.5t148.5 -118.5l-72 -66q-41 47 -80 74.5t-79.5 39t-94.5 11.5q-171 0 -262 -131q-36 -52 -51.5 -118.5t-15.5 -163.5t15 -162.5
t52 -120.5q91 -131 262 -131q78 0 135 27.5t119 97.5z" />
    <glyph glyph-name="d" unicode="d" horiz-adv-x="1106" 
d="M907 0h-104v127q-42 -55 -87.5 -85.5t-97 -42t-108.5 -11.5q-156 0 -242 86q-127 127 -127 420q0 292 127 419q40 40 102.5 63t139.5 23q92 0 163 -29.5t130 -109.5v598h104v-1458zM803 494q0 187 -57 300t-222 113q-164 0 -221 -113t-57 -300q0 -188 57 -301t221 -113
q165 0 222 113t57 301z" />
    <glyph glyph-name="e" unicode="e" horiz-adv-x="1071" 
d="M932 471h-686q0 -188 82.5 -288.5t238.5 -100.5q86 0 147 27t126 92l78 -62q-79 -79 -159.5 -115t-197.5 -36q-136 0 -229.5 57.5t-142 170.5t-48.5 278q0 120 27 213.5t77.5 157.5t125.5 99t166 35q93 0 165 -32t124 -94.5t79 -151.5t27 -203v-47zM827 555
q-3 73 -9 105.5t-25 80.5q-31 76 -102 121t-154 45q-85 0 -154 -44.5t-102 -121.5q-19 -48 -25.5 -84t-9.5 -102h581z" />
    <glyph glyph-name="f" unicode="f" horiz-adv-x="623" 
d="M557 909h-223v-909h-105v909h-135v78h135v213q0 76 27.5 134.5t82 91t128.5 32.5h90v-92h-72q-151 0 -151 -164v-215h223v-78z" />
    <glyph glyph-name="g" unicode="g" horiz-adv-x="1106" 
d="M907 -55q0 -124 -48 -221.5t-139.5 -152t-215.5 -54.5q-105 0 -173 28.5t-153 102.5l70 69q67 -59 119 -83.5t137 -24.5q148 0 223.5 94t75.5 248v176q-42 -55 -87.5 -85.5t-97 -42t-108.5 -11.5q-156 0 -242 86q-127 127 -127 420q0 292 127 419q40 40 102.5 63
t139.5 23q92 0 163 -29.5t130 -109.5v127h104v-1042zM803 494q0 187 -57 300t-222 113q-164 0 -221 -113t-57 -300q0 -188 57 -301t221 -113q165 0 222 113t57 301z" />
    <glyph glyph-name="h" unicode="h" horiz-adv-x="1145" 
d="M958 0h-104v612q0 143 -70 219t-202 76q-88 0 -150.5 -34.5t-95.5 -101t-33 -159.5v-612h-104v1458h104v-588q111 129 291 129q110 0 193 -44.5t127 -127.5t44 -196v-631z" />
    <glyph glyph-name="i" unicode="i" horiz-adv-x="502" 
d="M315 1329h-129v129h129v-129zM303 0h-104v987h104v-987z" />
    <glyph glyph-name="j" unicode="j" horiz-adv-x="502" 
d="M315 1329h-129v129h129v-129zM303 -215q0 -120 -60.5 -188t-176.5 -68h-91v92h72q85 0 118.5 40t33.5 126v1200h104v-1202z" />
    <glyph glyph-name="k" unicode="k" horiz-adv-x="1079" 
d="M997 0h-129l-340 543l-225 -260v-283h-104v1458h104v-1028l490 557h133l-326 -369z" />
    <glyph glyph-name="l" unicode="l" horiz-adv-x="588" 
d="M522 0h-90q-115 0 -176 68.5t-61 187.5v1202h104v-1200q0 -86 34 -126t118 -40h71v-92z" />
    <glyph glyph-name="m" unicode="m" horiz-adv-x="1798" 
d="M1612 0h-103v612q0 143 -70 219t-202 76q-128 0 -203.5 -74.5t-75.5 -201.5v-631h-104v612q0 143 -70 219t-202 76q-88 0 -150.5 -34.5t-95.5 -101t-33 -159.5v-612h-104v987h104v-117q111 129 293 129q73 0 134 -21t106.5 -60t76.5 -99q114 180 336 180q82 0 148 -24
t112 -70q103 -98 103 -274v-631z" />
    <glyph glyph-name="n" unicode="n" horiz-adv-x="1145" 
d="M958 0h-104v612q0 143 -70 219t-202 76q-88 0 -150.5 -34.5t-95.5 -101t-33 -159.5v-612h-104v987h104v-117q111 129 291 129q166 0 262 -94q102 -97 102 -274v-631z" />
    <glyph glyph-name="o" unicode="o" horiz-adv-x="1077" 
d="M936 494q0 -79 -10 -150t-37 -135t-76 -113q-110 -108 -274 -108q-165 0 -275 108q-49 49 -76 112.5t-37 133.5t-10 152q0 124 26 225t97 172q108 108 275 108q166 0 274 -108q49 -49 76 -113t37 -134.5t10 -149.5zM831 494q0 114 -16.5 194t-71.5 135q-82 84 -204 84
q-123 0 -205 -84q-55 -55 -71.5 -137.5t-16.5 -191.5q0 -108 16.5 -191.5t71.5 -138.5q84 -84 205 -84q120 0 204 84q55 55 71.5 135.5t16.5 194.5z" />
    <glyph glyph-name="p" unicode="p" horiz-adv-x="1106" 
d="M965 494q0 -293 -127 -420q-88 -86 -242 -86q-92 0 -162.5 30t-130.5 109v-598h-104v1458h104v-127q58 79 129.5 109t163.5 30q77 0 139 -22.5t103 -63.5q127 -127 127 -419zM860 494q0 187 -57 300t-221 113q-165 0 -222 -113t-57 -300q0 -188 57 -301t222 -113
q164 0 221 113t57 301z" />
    <glyph glyph-name="q" unicode="q" horiz-adv-x="1106" 
d="M907 -471h-104v598q-42 -55 -87.5 -85.5t-97 -42t-108.5 -11.5q-156 0 -242 86q-127 127 -127 420q0 292 127 419q40 40 102.5 63t139.5 23q92 0 163 -29.5t130 -109.5v127h104v-1458zM803 494q0 187 -57 300t-222 113q-164 0 -221 -113t-57 -300q0 -188 57 -301
t221 -113q165 0 222 113t57 301z" />
    <glyph glyph-name="r" unicode="r" horiz-adv-x="838" 
d="M829 905l-75 -76q-46 46 -85 62t-102 16q-60 0 -110.5 -23.5t-85 -65.5t-51.5 -95t-17 -115v-608h-104v987h104v-131q43 68 122 105.5t167 37.5q73 0 129.5 -21t107.5 -73z" />
    <glyph glyph-name="s" unicode="s" horiz-adv-x="1012" 
d="M897 281q0 -89 -48.5 -155.5t-138 -102t-208.5 -35.5q-252 0 -400 141l72 72q115 -121 324 -121q144 0 220.5 50.5t76.5 150.5q0 76 -46 116t-143 49l-164 15q-297 24 -297 258q0 84 43.5 147.5t123.5 98t188 34.5q104 0 193 -27.5t153 -76.5l-70 -70q-114 84 -276 84
q-122 0 -187 -50t-65 -140q0 -78 48.5 -117.5t152.5 -48.5l159 -14q138 -12 213.5 -68t75.5 -190z" />
    <glyph glyph-name="t" unicode="t" horiz-adv-x="666" 
d="M551 0h-90q-75 0 -129 33t-81.5 91t-27.5 134v651h-135v78h135v316h105v-316h223v-78h-223v-653q0 -164 151 -164h72v-92z" />
    <glyph glyph-name="u" unicode="u" horiz-adv-x="1145" 
d="M946 0h-104v117q-111 -129 -291 -129q-166 0 -262 94q-103 98 -103 274v631h105v-612q0 -143 70 -219t202 -76q88 0 150.5 34.5t95.5 101t33 159.5v612h104v-987z" />
    <glyph glyph-name="v" unicode="v" horiz-adv-x="881" 
d="M852 987l-360 -987h-103l-360 987h114l297 -864l297 864h115z" />
    <glyph glyph-name="w" unicode="w" horiz-adv-x="1458" 
d="M1430 987l-316 -987h-106l-279 823l-278 -823h-107l-315 987h114l252 -864l283 864h102l283 -864l252 864h115z" />
    <glyph glyph-name="x" unicode="x" horiz-adv-x="942" 
d="M860 0h-127l-260 416l-264 -416h-127l334 504l-320 483h127l250 -397l246 397h127l-320 -483z" />
    <glyph glyph-name="y" unicode="y" horiz-adv-x="881" 
d="M852 987l-459 -1255q-26 -79 -67 -115q-67 -63 -187 -63h-49v92h39q56 0 88 13t53 43t39 79l80 219l-360 987h114l297 -864l297 864h115z" />
    <glyph glyph-name="z" unicode="z" horiz-adv-x="926" 
d="M815 0h-704v98l594 797h-562v92h672v-98l-596 -797h596v-92z" />
    <glyph glyph-name="braceleft" unicode="{" horiz-adv-x="647" 
d="M545 -152h-29q-74 0 -120.5 13t-78.5 43q-29 30 -41 72.5t-12 121.5v424q0 87 -37 123q-37 39 -88 39h-37v90h37q49 0 88 39q37 37 37 123v424q0 79 12 122t41 72q32 32 78.5 44t120.5 12h29v-92h-27q-53 0 -78 -5.5t-43 -21.5q-28 -32 -28 -133v-424q0 -78 -29.5 -124.5
t-95.5 -80.5q64 -31 94.5 -79t30.5 -126v-424q0 -101 28 -133q16 -15 42 -20.5t79 -5.5h27v-93z" />
    <glyph glyph-name="bar" unicode="|" horiz-adv-x="649" 
d="M377 -152h-105v1762h105v-1762z" />
    <glyph glyph-name="braceright" unicode="}" horiz-adv-x="647" 
d="M545 684h-37q-51 0 -88 -39q-37 -36 -37 -123v-424q0 -84 -11.5 -124t-41.5 -70t-76.5 -43t-122.5 -13h-29v93h27q53 0 80 6t41 20q29 33 29 133v424q0 77 29.5 125t94.5 80q-67 34 -95.5 80.5t-28.5 124.5v424q0 100 -29 133q-16 16 -42 21.5t-79 5.5h-27v92h29
q76 0 122.5 -12.5t76.5 -43.5q30 -28 41.5 -69t11.5 -125v-424q0 -86 37 -123q39 -39 88 -39h37v-90z" />
    <glyph glyph-name="asciitilde" unicode="~" 
d="M944 567q-80 -80 -127 -103.5t-110 -23.5q-30 0 -64 9t-75.5 26t-69.5 29q-68 28 -95 37.5t-61 9.5q-46 0 -78.5 -16.5t-91.5 -75.5l-63 63q77 79 125 103t112 24q23 0 49.5 -5.5t45 -12t53 -20.5t61.5 -25q24 -10 53.5 -22.5t52 -18.5t50.5 -6q45 0 78 16.5t92 75.5z
" />
    <glyph glyph-name="Adieresis" unicode="&#xc4;" horiz-adv-x="1233" 
d="M1202 0h-119l-127 354h-680l-126 -354h-119l536 1458h99zM922 453l-306 858l-305 -858h611zM888 1618h-118v157h118v-157zM462 1618h-118v157h118v-157z" />
    <glyph glyph-name="Aring" unicode="&#xc5;" horiz-adv-x="1233" 
d="M1202 0h-119l-127 354h-680l-126 -354h-119l536 1458h99zM922 453l-306 858l-305 -858h611zM849 1763q0 -65 -31.5 -118.5t-85 -85t-116.5 -31.5t-116.5 31.5t-85 85t-31.5 118.5t31.5 118t84 84.5t117.5 31.5t117.5 -31.5t84 -84.5t31.5 -118zM766 1763
q0 61 -43.5 104.5t-106.5 43.5q-61 0 -105.5 -43.5t-44.5 -104.5t45 -105t105 -44q41 0 75 20t54.5 54t20.5 75z" />
    <glyph glyph-name="Ccedilla" unicode="&#xc7;" horiz-adv-x="1319" 
d="M1163 414q-24 -132 -92 -228t-172.5 -147t-230.5 -51q-104 0 -199 39t-166 110q-65 65 -93 137t-35 165t-7 290t7 290t35 165t93 137q71 71 165.5 110t199.5 39q128 0 232 -51t171.5 -146.5t91.5 -228.5h-112q-32 152 -134.5 240t-248.5 88q-78 0 -149.5 -28t-127.5 -84
q-39 -39 -60.5 -81t-33.5 -106t-15 -146t-3 -198q0 -173 7 -263.5t31 -153.5t74 -113q55 -55 127 -84t150 -29q97 0 176.5 39.5t135 115t75.5 173.5h108zM750 -143l-131 -308h-129l147 308h113z" />
    <glyph glyph-name="Eacute" unicode="&#xc9;" horiz-adv-x="1225" 
d="M1110 0h-885v1458h885v-98h-774v-576h659v-98h-659v-588h774v-98zM883 1898l-217 -301h-119l198 301h138z" />
    <glyph glyph-name="Ntilde" unicode="&#xd1;" horiz-adv-x="1513" 
d="M1288 0h-110l-842 1268v-1268h-111v1458h111l842 -1263v1263h110v-1458zM1063 1726q-39 -39 -74.5 -62.5t-58.5 -29.5t-49 -6q-37 0 -66.5 12t-74.5 37q-73 43 -115 43q-29 0 -54 -12.5t-67 -54.5l-61 59q65 65 103.5 81.5t78.5 16.5q44 0 73.5 -11.5t67.5 -37.5
q42 -25 64 -34t51 -9q53 0 121 68z" />
    <glyph glyph-name="Odieresis" unicode="&#xd6;" horiz-adv-x="1335" 
d="M1167 729q0 -197 -7 -290t-35 -165t-93 -137q-71 -71 -165.5 -110t-198.5 -39t-199 39t-166 110q-65 65 -93 137t-35 165t-7 290t7 290t35 165t93 137q71 71 165.5 110t199.5 39t199 -39t165 -110q65 -65 93 -137t35 -165t7 -290zM1057 729q0 173 -7 264t-31 153.5
t-75 113.5q-56 56 -126.5 84t-149.5 28q-78 0 -149.5 -28t-127.5 -84q-39 -39 -60.5 -81t-33.5 -106t-15 -146t-3 -198q0 -173 7 -263.5t31 -153.5t74 -113q55 -55 127 -84t150 -29q79 0 150 29t126 84q52 52 75.5 114t30.5 152.5t7 263.5zM940 1618h-118v157h118v-157z
M514 1618h-118v157h118v-157z" />
    <glyph glyph-name="Udieresis" unicode="&#xdc;" horiz-adv-x="1407" 
d="M1204 473q0 -140 -63.5 -251t-177 -172.5t-258.5 -61.5q-144 0 -258.5 61.5t-178 172.5t-63.5 251v985h110v-971q0 -120 48.5 -210.5t137.5 -140.5t204 -50q113 0 202.5 50t138 140.5t48.5 210.5v971h110v-985zM977 1618h-118v157h118v-157zM551 1618h-118v157h118v-157z
" />
    <glyph glyph-name="aacute" unicode="&#xe1;" horiz-adv-x="1073" 
d="M883 0h-105v98q-62 -62 -129 -86t-172 -24q-71 0 -126 9t-94.5 29t-70.5 52q-71 74 -71 192q0 136 91.5 210.5t252.5 74.5h319v111q0 122 -65.5 181.5t-212.5 59.5q-104 0 -165 -28.5t-108 -96.5l-75 66q42 59 91 91t112.5 46t144.5 14q383 0 383 -323v-676zM778 344v127
h-307q-252 0 -252 -199q0 -98 62.5 -145t195.5 -47q81 0 139.5 14.5t106.5 61.5q55 51 55 188zM750 1509l-217 -301h-119l198 301h138z" />
    <glyph glyph-name="agrave" unicode="&#xe0;" horiz-adv-x="1073" 
d="M883 0h-105v98q-62 -62 -129 -86t-172 -24q-71 0 -126 9t-94.5 29t-70.5 52q-71 74 -71 192q0 136 91.5 210.5t252.5 74.5h319v111q0 122 -65.5 181.5t-212.5 59.5q-104 0 -165 -28.5t-108 -96.5l-75 66q42 59 91 91t112.5 46t144.5 14q383 0 383 -323v-676zM778 344v127
h-307q-252 0 -252 -199q0 -98 62.5 -145t195.5 -47q81 0 139.5 14.5t106.5 61.5q55 51 55 188zM606 1208h-119l-217 301h138z" />
    <glyph glyph-name="acircumflex" unicode="&#xe2;" horiz-adv-x="1073" 
d="M883 0h-105v98q-62 -62 -129 -86t-172 -24q-71 0 -126 9t-94.5 29t-70.5 52q-71 74 -71 192q0 136 91.5 210.5t252.5 74.5h319v111q0 122 -65.5 181.5t-212.5 59.5q-104 0 -165 -28.5t-108 -96.5l-75 66q42 59 91 91t112.5 46t144.5 14q383 0 383 -323v-676zM778 344v127
h-307q-252 0 -252 -199q0 -98 62.5 -145t195.5 -47q81 0 139.5 14.5t106.5 61.5q55 51 55 188zM817 1208h-117l-190 224l-190 -224h-117l252 301h110z" />
    <glyph glyph-name="adieresis" unicode="&#xe4;" horiz-adv-x="1073" 
d="M883 0h-105v98q-62 -62 -129 -86t-172 -24q-71 0 -126 9t-94.5 29t-70.5 52q-71 74 -71 192q0 136 91.5 210.5t252.5 74.5h319v111q0 122 -65.5 181.5t-212.5 59.5q-104 0 -165 -28.5t-108 -96.5l-75 66q42 59 91 91t112.5 46t144.5 14q383 0 383 -323v-676zM778 344v127
h-307q-252 0 -252 -199q0 -98 62.5 -145t195.5 -47q81 0 139.5 14.5t106.5 61.5q55 51 55 188zM782 1229h-118v157h118v-157zM356 1229h-118v157h118v-157z" />
    <glyph glyph-name="atilde" unicode="&#xe3;" horiz-adv-x="1073" 
d="M883 0h-105v98q-62 -62 -129 -86t-172 -24q-71 0 -126 9t-94.5 29t-70.5 52q-71 74 -71 192q0 136 91.5 210.5t252.5 74.5h319v111q0 122 -65.5 181.5t-212.5 59.5q-104 0 -165 -28.5t-108 -96.5l-75 66q42 59 91 91t112.5 46t144.5 14q383 0 383 -323v-676zM778 344v127
h-307q-252 0 -252 -199q0 -98 62.5 -145t195.5 -47q81 0 139.5 14.5t106.5 61.5q55 51 55 188zM815 1337q-39 -39 -74.5 -62.5t-58.5 -29.5t-49 -6q-37 0 -66.5 12t-74.5 37q-73 43 -115 43q-29 0 -54 -12.5t-67 -54.5l-61 59q65 65 103.5 81.5t78.5 16.5q44 0 73.5 -11.5
t67.5 -37.5q42 -25 64 -34t51 -9q53 0 121 68z" />
    <glyph glyph-name="aring" unicode="&#xe5;" horiz-adv-x="1073" 
d="M883 0h-105v98q-62 -62 -129 -86t-172 -24q-71 0 -126 9t-94.5 29t-70.5 52q-71 74 -71 192q0 136 91.5 210.5t252.5 74.5h319v111q0 122 -65.5 181.5t-212.5 59.5q-104 0 -165 -28.5t-108 -96.5l-75 66q42 59 91 91t112.5 46t144.5 14q383 0 383 -323v-676zM778 344v127
h-307q-252 0 -252 -199q0 -98 62.5 -145t195.5 -47q81 0 139.5 14.5t106.5 61.5q55 51 55 188zM743 1386q0 -65 -31.5 -118.5t-85 -85t-116.5 -31.5t-116.5 31.5t-85 85t-31.5 118.5t31.5 118t84 84.5t117.5 31.5t117.5 -31.5t84 -84.5t31.5 -118zM660 1386
q0 61 -43.5 104.5t-106.5 43.5q-61 0 -105.5 -43.5t-44.5 -104.5t45 -105t105 -44q41 0 75 20t54.5 54t20.5 75z" />
    <glyph glyph-name="ccedilla" unicode="&#xe7;" horiz-adv-x="1020" 
d="M901 139q-79 -87 -151 -119t-175 -32q-99 0 -178.5 34.5t-137.5 101.5t-88 162t-30 208q0 157 52.5 270t150.5 174t231 61q106 0 177.5 -32.5t148.5 -118.5l-72 -66q-41 47 -80 74.5t-79.5 39t-94.5 11.5q-171 0 -262 -131q-36 -52 -51.5 -118.5t-15.5 -163.5t15 -162.5
t52 -120.5q91 -131 262 -131q78 0 135 27.5t119 97.5zM631 -143l-131 -308h-129l147 308h113z" />
    <glyph glyph-name="eacute" unicode="&#xe9;" horiz-adv-x="1071" 
d="M932 471h-686q0 -188 82.5 -288.5t238.5 -100.5q86 0 147 27t126 92l78 -62q-79 -79 -159.5 -115t-197.5 -36q-136 0 -229.5 57.5t-142 170.5t-48.5 278q0 120 27 213.5t77.5 157.5t125.5 99t166 35q93 0 165 -32t124 -94.5t79 -151.5t27 -203v-47zM827 555
q-3 73 -9 105.5t-25 80.5q-31 76 -102 121t-154 45q-85 0 -154 -44.5t-102 -121.5q-19 -48 -25.5 -84t-9.5 -102h581zM781 1509l-217 -301h-119l198 301h138z" />
    <glyph glyph-name="egrave" unicode="&#xe8;" horiz-adv-x="1071" 
d="M932 471h-686q0 -188 82.5 -288.5t238.5 -100.5q86 0 147 27t126 92l78 -62q-79 -79 -159.5 -115t-197.5 -36q-136 0 -229.5 57.5t-142 170.5t-48.5 278q0 120 27 213.5t77.5 157.5t125.5 99t166 35q93 0 165 -32t124 -94.5t79 -151.5t27 -203v-47zM827 555
q-3 73 -9 105.5t-25 80.5q-31 76 -102 121t-154 45q-85 0 -154 -44.5t-102 -121.5q-19 -48 -25.5 -84t-9.5 -102h581zM637 1208h-119l-217 301h138z" />
    <glyph glyph-name="ecircumflex" unicode="&#xea;" horiz-adv-x="1071" 
d="M932 471h-686q0 -188 82.5 -288.5t238.5 -100.5q86 0 147 27t126 92l78 -62q-79 -79 -159.5 -115t-197.5 -36q-136 0 -229.5 57.5t-142 170.5t-48.5 278q0 120 27 213.5t77.5 157.5t125.5 99t166 35q93 0 165 -32t124 -94.5t79 -151.5t27 -203v-47zM827 555
q-3 73 -9 105.5t-25 80.5q-31 76 -102 121t-154 45q-85 0 -154 -44.5t-102 -121.5q-19 -48 -25.5 -84t-9.5 -102h581zM848 1208h-117l-190 224l-190 -224h-117l252 301h110z" />
    <glyph glyph-name="edieresis" unicode="&#xeb;" horiz-adv-x="1071" 
d="M932 471h-686q0 -188 82.5 -288.5t238.5 -100.5q86 0 147 27t126 92l78 -62q-79 -79 -159.5 -115t-197.5 -36q-136 0 -229.5 57.5t-142 170.5t-48.5 278q0 120 27 213.5t77.5 157.5t125.5 99t166 35q93 0 165 -32t124 -94.5t79 -151.5t27 -203v-47zM827 555
q-3 73 -9 105.5t-25 80.5q-31 76 -102 121t-154 45q-85 0 -154 -44.5t-102 -121.5q-19 -48 -25.5 -84t-9.5 -102h581zM813 1229h-118v157h118v-157zM387 1229h-118v157h118v-157z" />
    <glyph glyph-name="iacute" unicode="&#xed;" horiz-adv-x="502" 
d="M303 0h-104v987h104v-987zM482 1509l-217 -301h-119l198 301h138z" />
    <glyph glyph-name="igrave" unicode="&#xec;" horiz-adv-x="502" 
d="M303 0h-104v987h104v-987zM354 1208h-119l-217 301h138z" />
    <glyph glyph-name="icircumflex" unicode="&#xee;" horiz-adv-x="502" 
d="M303 0h-104v987h104v-987zM557 1208h-117l-190 224l-190 -224h-117l252 301h110z" />
    <glyph glyph-name="idieresis" unicode="&#xef;" horiz-adv-x="502" 
d="M303 0h-104v987h104v-987zM524 1229h-118v157h118v-157zM98 1229h-118v157h118v-157z" />
    <glyph glyph-name="ntilde" unicode="&#xf1;" horiz-adv-x="1145" 
d="M958 0h-104v612q0 143 -70 219t-202 76q-88 0 -150.5 -34.5t-95.5 -101t-33 -159.5v-612h-104v987h104v-117q111 129 291 129q166 0 262 -94q102 -97 102 -274v-631zM887 1337q-39 -39 -74.5 -62.5t-58.5 -29.5t-49 -6q-37 0 -66.5 12t-74.5 37q-73 43 -115 43
q-29 0 -54 -12.5t-67 -54.5l-61 59q65 65 103.5 81.5t78.5 16.5q44 0 73.5 -11.5t67.5 -37.5q42 -25 64 -34t51 -9q53 0 121 68z" />
    <glyph glyph-name="oacute" unicode="&#xf3;" horiz-adv-x="1077" 
d="M936 494q0 -79 -10 -150t-37 -135t-76 -113q-110 -108 -274 -108q-165 0 -275 108q-49 49 -76 112.5t-37 133.5t-10 152q0 124 26 225t97 172q108 108 275 108q166 0 274 -108q49 -49 76 -113t37 -134.5t10 -149.5zM831 494q0 114 -16.5 194t-71.5 135q-82 84 -204 84
q-123 0 -205 -84q-55 -55 -71.5 -137.5t-16.5 -191.5q0 -108 16.5 -191.5t71.5 -138.5q84 -84 205 -84q120 0 204 84q55 55 71.5 135.5t16.5 194.5zM779 1509l-217 -301h-119l198 301h138z" />
    <glyph glyph-name="ograve" unicode="&#xf2;" horiz-adv-x="1077" 
d="M608 1208h-119l-217 301h138zM1067 494q0 -79 -10 -150t-37 -135t-76 -113q-110 -108 -274 -108q-165 0 -275 108q-49 49 -76 112.5t-37 133.5t-10 152q0 124 26 225t97 172q108 108 275 108q166 0 274 -108q49 -49 76 -113t37 -134.5t10 -149.5zM962 494
q0 114 -16.5 194t-71.5 135q-82 84 -204 84q-123 0 -205 -84q-55 -55 -71.5 -137.5t-16.5 -191.5q0 -108 16.5 -191.5t71.5 -138.5q84 -84 205 -84q120 0 204 84q55 55 71.5 135.5t16.5 194.5z" />
    <glyph glyph-name="ocircumflex" unicode="&#xf4;" horiz-adv-x="1077" 
d="M936 494q0 -79 -10 -150t-37 -135t-76 -113q-110 -108 -274 -108q-165 0 -275 108q-49 49 -76 112.5t-37 133.5t-10 152q0 124 26 225t97 172q108 108 275 108q166 0 274 -108q49 -49 76 -113t37 -134.5t10 -149.5zM831 494q0 114 -16.5 194t-71.5 135q-82 84 -204 84
q-123 0 -205 -84q-55 -55 -71.5 -137.5t-16.5 -191.5q0 -108 16.5 -191.5t71.5 -138.5q84 -84 205 -84q120 0 204 84q55 55 71.5 135.5t16.5 194.5zM846 1208h-117l-190 224l-190 -224h-117l252 301h110z" />
    <glyph glyph-name="odieresis" unicode="&#xf6;" horiz-adv-x="1077" 
d="M936 494q0 -79 -10 -150t-37 -135t-76 -113q-110 -108 -274 -108q-165 0 -275 108q-49 49 -76 112.5t-37 133.5t-10 152q0 124 26 225t97 172q108 108 275 108q166 0 274 -108q49 -49 76 -113t37 -134.5t10 -149.5zM831 494q0 114 -16.5 194t-71.5 135q-82 84 -204 84
q-123 0 -205 -84q-55 -55 -71.5 -137.5t-16.5 -191.5q0 -108 16.5 -191.5t71.5 -138.5q84 -84 205 -84q120 0 204 84q55 55 71.5 135.5t16.5 194.5zM811 1229h-118v157h118v-157zM385 1229h-118v157h118v-157z" />
    <glyph glyph-name="otilde" unicode="&#xf5;" horiz-adv-x="1077" 
d="M936 494q0 -79 -10 -150t-37 -135t-76 -113q-110 -108 -274 -108q-165 0 -275 108q-49 49 -76 112.5t-37 133.5t-10 152q0 124 26 225t97 172q108 108 275 108q166 0 274 -108q49 -49 76 -113t37 -134.5t10 -149.5zM831 494q0 114 -16.5 194t-71.5 135q-82 84 -204 84
q-123 0 -205 -84q-55 -55 -71.5 -137.5t-16.5 -191.5q0 -108 16.5 -191.5t71.5 -138.5q84 -84 205 -84q120 0 204 84q55 55 71.5 135.5t16.5 194.5zM844 1337q-39 -39 -74.5 -62.5t-58.5 -29.5t-49 -6q-37 0 -66.5 12t-74.5 37q-73 43 -115 43q-29 0 -54 -12.5t-67 -54.5
l-61 59q65 65 103.5 81.5t78.5 16.5q44 0 73.5 -11.5t67.5 -37.5q42 -25 64 -34t51 -9q53 0 121 68z" />
    <glyph glyph-name="uacute" unicode="&#xfa;" horiz-adv-x="1145" 
d="M946 0h-104v117q-111 -129 -291 -129q-166 0 -262 94q-103 98 -103 274v631h105v-612q0 -143 70 -219t202 -76q88 0 150.5 34.5t95.5 101t33 159.5v612h104v-987zM805 1509l-217 -301h-119l198 301h138z" />
    <glyph glyph-name="ugrave" unicode="&#xf9;" horiz-adv-x="1145" 
d="M946 0h-104v117q-111 -129 -291 -129q-166 0 -262 94q-103 98 -103 274v631h105v-612q0 -143 70 -219t202 -76q88 0 150.5 34.5t95.5 101t33 159.5v612h104v-987zM661 1208h-119l-217 301h138z" />
    <glyph glyph-name="ucircumflex" unicode="&#xfb;" horiz-adv-x="1145" 
d="M946 0h-104v117q-111 -129 -291 -129q-166 0 -262 94q-103 98 -103 274v631h105v-612q0 -143 70 -219t202 -76q88 0 150.5 34.5t95.5 101t33 159.5v612h104v-987zM872 1208h-117l-190 224l-190 -224h-117l252 301h110z" />
    <glyph glyph-name="udieresis" unicode="&#xfc;" horiz-adv-x="1145" 
d="M946 0h-104v117q-111 -129 -291 -129q-166 0 -262 94q-103 98 -103 274v631h105v-612q0 -143 70 -219t202 -76q88 0 150.5 34.5t95.5 101t33 159.5v612h104v-987zM837 1229h-118v157h118v-157zM411 1229h-118v157h118v-157z" />
    <glyph glyph-name="dagger" unicode="&#x2020;" horiz-adv-x="1257" 
d="M1094 936h-416v-936h-105v936h-409v92h409v430h105v-430h416v-92z" />
    <glyph glyph-name="degree" unicode="&#xb0;" horiz-adv-x="938" 
d="M791 1151q0 -132 -94 -227t-228 -95q-132 0 -227 95t-95 227q0 134 95 228t227 94q87 0 161.5 -43t117.5 -117.5t43 -161.5zM698 1151q0 66 -30.5 120t-83 84.5t-117.5 30.5q-64 0 -115.5 -30t-81.5 -84.5t-30 -120.5q0 -99 65 -167.5t164 -68.5q64 0 116.5 31t82.5 85
t30 120z" />
    <glyph glyph-name="cent" unicode="&#xa2;" horiz-adv-x="1020" 
d="M901 395q-48 -53 -94.5 -86t-96.5 -48t-112 -17v-244h-88v248q-112 13 -196 77.5t-128.5 173t-44.5 251.5q0 142 44.5 250.5t128.5 173t196 77.5v207h88v-203q94 -3 161 -36t142 -115l-72 -66q-56 65 -108 93.5t-123 31.5v-827q71 3 123 31.5t108 93.5zM510 342v815
q-125 -21 -197 -125q-36 -52 -51.5 -118.5t-15.5 -163.5t15 -162.5t52 -120.5q72 -104 197 -125z" />
    <glyph glyph-name="sterling" unicode="&#xa3;" horiz-adv-x="1100" 
d="M987 0h-754v700h-131v78h131v250q0 98 30.5 180t87.5 141t138 90t179 31q195 0 319 -124l-76 -76q-47 48 -101.5 75t-141.5 27q-156 0 -240 -95.5t-84 -270.5v-228h324v-78h-324v-602h643v-98z" />
    <glyph glyph-name="section" unicode="&#xa7;" horiz-adv-x="1159" 
d="M961 506q0 -123 -63.5 -213t-162.5 -135q47 -15 87.5 -45t66.5 -66t41.5 -84t15.5 -104q0 -97 -46.5 -176t-130.5 -122.5t-189 -43.5q-155 0 -261 84.5t-116 232.5h110q12 -109 80 -164t187 -55q79 0 136 28t88.5 83t31.5 133q0 81 -53 143t-140 86l-170 47
q-129 37 -201.5 137.5t-72.5 233.5q0 84 30 153t82.5 118.5t112.5 76.5q-101 45 -152 113.5t-51 175.5q0 77 27.5 136t77 102.5t114 66t140.5 22.5q97 0 178.5 -36.5t131.5 -106.5t54 -166h-108q-21 213 -256 213q-116 0 -183 -59.5t-67 -171.5q0 -170 186 -219l170 -47
q85 -24 147 -78.5t95 -129t33 -163.5zM850 506q0 67 -15.5 116.5t-56.5 90.5q-84 84 -198 84q-121 0 -199 -84q-39 -43 -55.5 -90.5t-16.5 -116.5q0 -129 72 -207q78 -84 199 -84q120 0 198 84q72 78 72 207z" />
    <glyph glyph-name="bullet" unicode="&#x2022;" horiz-adv-x="1118" 
d="M893 684q0 -69 -26 -129.5t-71.5 -106t-108 -72t-128.5 -26.5t-127.5 26.5t-107.5 72.5t-72.5 107.5t-26.5 127.5t26.5 128.5t72 108t106 71.5t129.5 26t130.5 -26t106.5 -71t71 -106.5t26 -130.5z" />
    <glyph glyph-name="paragraph" unicode="&#xb6;" horiz-adv-x="1186" 
d="M961 -471h-105v1831h-252v-1831h-104v1151q-96 0 -170 31.5t-128.5 88.5t-82 126.5t-27.5 142.5q0 74 28.5 145t85 126.5t137 86.5t181.5 31h437v-1929z" />
    <glyph glyph-name="germandbls" unicode="&#xdf;" horiz-adv-x="1126" 
d="M969 274q0 -131 -80 -204q-38 -36 -84.5 -53t-110.5 -17h-110v92h90q45 0 72.5 9.5t60.5 35.5q57 45 57 150v366q0 96 -47 140q-49 47 -133 47h-100v92h80q90 0 145 57.5t55 151.5q0 109 -71 174q-69 65 -213 65q-95 0 -157 -38t-91 -107t-29 -160v-1075h-104v1075
q0 186 104 292t289 106q162 0 268.5 -84t106.5 -248t-129 -250q77 -41 104 -95.5t27 -158.5v-363z" />
    <glyph glyph-name="registered" unicode="&#xae;" horiz-adv-x="1831" 
d="M1657 729q0 -149 -58 -286t-159.5 -238.5t-238.5 -159t-286 -57.5q-148 0 -285 57.5t-238.5 159t-159.5 238.5t-58 286t58 286t159.5 238.5t238.5 159t285 57.5q149 0 286 -57.5t238.5 -159t159.5 -238.5t58 -286zM1561 729q0 174 -87 324t-236 239.5t-323 89.5
q-129 0 -247.5 -51.5t-208 -142.5t-139.5 -209t-50 -250q0 -174 87 -324t236 -239.5t322 -89.5q174 0 323 89.5t236 239.5t87 324zM1219 319h-107l-203 343h-135v-343h-92v822h262q69 0 126 -31.5t92.5 -87t35.5 -123.5q0 -88 -50.5 -146.5t-135.5 -82.5zM1106 899
q0 44 -22.5 80t-61.5 57t-88 21h-160v-314h160q48 0 87.5 20t62 55.5t22.5 80.5z" />
    <glyph glyph-name="copyright" unicode="&#xa9;" horiz-adv-x="1831" 
d="M1657 729q0 -149 -58 -286t-159.5 -238.5t-238.5 -159t-286 -57.5q-148 0 -285 57.5t-238.5 159t-159.5 238.5t-58 286t58 286t159.5 238.5t238.5 159t285 57.5q149 0 286 -57.5t238.5 -159t159.5 -238.5t58 -286zM1559 729q0 131 -50.5 249.5t-139 208.5t-207 141.5
t-247.5 51.5q-128 0 -246.5 -51.5t-207.5 -142t-139 -208.5t-50 -249q0 -173 87 -323t235.5 -239t320.5 -89q173 0 321.5 89t235.5 239t87 323zM1192 414q-44 -40 -83 -62t-84 -33.5t-101 -11.5q-120 0 -202 56t-121.5 151.5t-39.5 214.5t39.5 215t121 152.5t202.5 56.5
q84 0 142.5 -25t125.5 -84l-62 -61q-55 50 -99.5 68t-106.5 18q-144 0 -207.5 -94.5t-63.5 -245.5q0 -150 63.5 -244t207.5 -94q42 0 76 8t66 27.5t64 48.5z" />
    <glyph glyph-name="trademark" unicode="&#x2122;" horiz-adv-x="1657" 
d="M1542 584h-90v671l-225 -446h-94l-226 446v-671h-90v874h90l273 -553l272 553h90v-874zM655 1374h-249v-790h-91v790h-249v84h589v-84z" />
    <glyph glyph-name="acute" unicode="&#xb4;" horiz-adv-x="1024" 
d="M752 1509l-217 -301h-119l198 301h138z" />
    <glyph glyph-name="dieresis" unicode="&#xa8;" horiz-adv-x="1024" 
d="M784 1229h-118v157h118v-157zM358 1229h-118v157h118v-157z" />
    <glyph glyph-name="notequal" 
d="M944 334h-555l-213 -213l-67 67l145 146h-145v96h241l217 217h-458v96h555l213 213l67 -67l-145 -146h145v-96h-242l-217 -217h459v-96z" />
    <glyph glyph-name="AE" unicode="&#xc6;" horiz-adv-x="1845" 
d="M1731 0h-883v354h-522l-185 -354h-121l773 1458h938v-98h-775v-582h660v-98h-660v-582h775v-98zM848 453v907l-475 -907h475z" />
    <glyph glyph-name="Oslash" unicode="&#xd8;" horiz-adv-x="1335" 
d="M1167 729q0 -197 -7 -290t-35 -165t-93 -137q-71 -71 -165.5 -110t-198.5 -39q-146 0 -267 71l-71 -149h-109l101 209q-7 6 -19 18q-65 65 -93 137t-35 165t-7 290t7 290t35 165t93 137q71 71 165.5 110t199.5 39q145 0 266 -71l72 149h108l-100 -209q5 -4 9.5 -8.5
t8.5 -9.5q65 -65 93 -137t35 -165t7 -290zM1057 729q0 158 -5.5 247.5t-25.5 151.5t-61 109l-519 -1083q97 -68 222 -68q79 0 150 29t126 84q52 52 75.5 114t30.5 152.5t7 263.5zM889 1305q-95 67 -221 67q-78 0 -149.5 -28t-127.5 -84q-39 -39 -60.5 -81t-33.5 -106
t-15 -146t-3 -198q0 -158 5.5 -247.5t25.5 -151t61 -109.5z" />
    <glyph glyph-name="infinity" horiz-adv-x="1622" 
d="M1475 532q0 -86 -39 -155t-107 -108.5t-155 -39.5q-105 0 -185 51t-178 171q-96 -121 -178 -172.5t-182 -51.5q-131 0 -217.5 87.5t-86.5 217.5q0 132 86 220t218 88q68 0 125 -23.5t112 -71t123 -131.5q69 85 122.5 132.5t110.5 70.5t130 23q85 0 154.5 -40.5
t108 -110.5t38.5 -157zM1376 532q0 95 -58 153t-153 58q-76 0 -136.5 -47.5t-156.5 -163.5q62 -74 105 -117t90 -67t98 -24q94 0 152.5 57t58.5 151zM750 532q-93 114 -154.5 165t-138.5 51q-93 0 -152 -61t-59 -155q0 -93 58.5 -150.5t152.5 -57.5q76 0 139 49.5t154 158.5
z" />
    <glyph glyph-name="plusminus" unicode="&#xb1;" 
d="M944 553h-369v-373h-96v373h-370v96h370v371h96v-371h369v-96zM944 0h-835v96h835v-96z" />
    <glyph glyph-name="lessequal" horiz-adv-x="2103" 
d="M1749 -86l-72 -72l-1188 1186v-1098l-98 99v1171h1170l100 -100h-1098z" />
    <glyph glyph-name="greaterequal" horiz-adv-x="2103" 
d="M1712 29l-98 -99v1098l-1188 -1186l-72 72l1186 1186h-1098l101 100h1169v-1171z" />
    <glyph glyph-name="yen" unicode="&#xa5;" horiz-adv-x="1010" 
d="M989 1458l-334 -667h222v-78h-261l-55 -109v-108h316v-78h-316v-418h-110v418h-318v78h318v108l-56 109h-262v78h223l-336 667h117l371 -739l366 739h115z" />
    <glyph glyph-name="mu" unicode="&#xb5;" horiz-adv-x="1139" 
d="M940 0h-104v117q-111 -129 -291 -129q-163 0 -260 92v-551h-105v1458h105v-612q0 -143 70 -219t202 -76q88 0 150.5 34.5t95.5 101t33 159.5v612h104v-987z" />
    <glyph glyph-name="partialdiff" horiz-adv-x="1106" 
d="M907 494q0 -79 -9.5 -149.5t-36 -135.5t-73.5 -113q-105 -108 -264 -108q-158 0 -264 108q-46 49 -72.5 112t-36.5 133.5t-10 152.5q0 88 10 160t36.5 134.5t72 108t111.5 74t139 28.5q92 0 163 -29.5t130 -109.5v176q0 154 -75.5 248t-223.5 94q-85 0 -137.5 -24.5
t-118.5 -83.5l-68 67q84 74 150.5 103.5t173.5 29.5q127 0 217.5 -53t138 -150.5t47.5 -224.5v-548zM803 494q0 114 -16 194t-68 135q-79 84 -195 84q-115 0 -194 -84q-52 -55 -68 -137.5t-16 -191.5q0 -108 16 -191.5t68 -138.5q81 -84 194 -84q114 0 195 84
q52 55 68 135.5t16 194.5z" />
    <glyph glyph-name="summation" horiz-adv-x="1128" 
d="M1014 -471h-885v98l424 944l-424 887v98h885v-98h-760l399 -837v-99l-399 -895h760v-98z" />
    <glyph glyph-name="product" horiz-adv-x="1432" 
d="M1206 -471h-110v1929h-760v-1929h-111v2027h981v-2027z" />
    <glyph glyph-name="pi" horiz-adv-x="1210" 
d="M985 0h-98v895h-563v-895h-99v987h760v-987z" />
    <glyph glyph-name="integral" horiz-adv-x="674" 
d="M612 1366h-71q-152 0 -152 -164v-1415q0 -116 -61.5 -187t-175.5 -71h-91v92h72q152 0 152 164v1415q0 116 61.5 187t175.5 71h90v-92z" />
    <glyph glyph-name="ordfeminine" unicode="&#xaa;" horiz-adv-x="915" 
d="M729 670h-88v73q-33 -31 -65 -49t-72 -26.5t-96 -8.5q-85 0 -138 16.5t-92 55.5q-57 57 -57 154q0 106 72 166.5t200 60.5h248v86q0 94 -50.5 140t-164.5 46q-81 0 -128 -21t-85 -77l-66 55q49 68 113.5 95.5t165.5 27.5q152 0 227.5 -66t75.5 -192v-536zM641 944v96
h-238q-194 0 -194 -153q0 -75 47.5 -111.5t151.5 -36.5q62 0 110 12t82 46q41 37 41 147z" />
    <glyph glyph-name="ordmasculine" unicode="&#xba;" horiz-adv-x="926" 
d="M778 1063q0 -102 -20 -179.5t-78 -135.5q-84 -86 -217 -86t-217 86q-39 39 -61 89.5t-30 107.5t-8 118t8 117.5t30.5 108t60.5 89.5q84 86 217 86t217 -86q58 -58 78 -135.5t20 -179.5zM690 1063q0 87 -12.5 150.5t-54.5 105.5q-65 65 -160 65t-160 -65
q-42 -43 -54.5 -106t-12.5 -150t12.5 -150t54.5 -106q66 -66 160 -66t160 66q41 41 54 105t13 151z" />
    <glyph glyph-name="Omega" horiz-adv-x="1335" 
d="M1167 0h-381v96q76 36 126.5 76t88.5 104q35 57 45.5 159.5t10.5 293.5q0 173 -7 264t-31 153.5t-75 113.5q-56 56 -126.5 84t-149.5 28q-78 0 -149.5 -28t-127.5 -84q-39 -39 -60.5 -81t-33.5 -106t-15 -146t-3 -198q0 -191 10.5 -293t44.5 -160q39 -64 89.5 -103.5
t125.5 -76.5v-96h-381v96h186q-85 69 -127 146q-37 69 -48 164.5t-11 236.5v86q0 197 7 290t35 165t93 137q71 71 165.5 110t199.5 39t199 -39t165 -110q65 -65 93 -137t35 -165t7 -290v-86q0 -141 -11.5 -238t-47.5 -163q-19 -37 -52 -74.5t-75 -71.5h186v-96z" />
    <glyph glyph-name="ae" unicode="&#xe6;" horiz-adv-x="1708" 
d="M1569 471h-686q0 -188 82.5 -288.5t238.5 -100.5q86 0 147 27t126 92l77 -62q-52 -52 -103.5 -85t-114 -49.5t-140.5 -16.5q-123 0 -212 47t-140 137q-40 -66 -91 -106.5t-118.5 -59t-157.5 -18.5q-71 0 -126 9t-94.5 29t-70.5 52q-71 74 -71 192q0 136 91.5 210.5
t252.5 74.5h319v111q0 122 -65.5 181.5t-212.5 59.5q-104 0 -165 -28.5t-108 -96.5l-75 66q42 59 91 91t112.5 46t144.5 14q140 0 229 -44.5t125 -129.5q50 84 131.5 129t188.5 45q93 0 165 -32t124 -94.5t79 -151.5t27 -203v-47zM1464 555q-3 73 -9 105.5t-25 80.5
q-32 76 -102.5 121t-153.5 45q-85 0 -154 -44.5t-102 -121.5q-19 -48 -25.5 -84t-9.5 -102h581zM778 344v127h-307q-252 0 -252 -199q0 -98 62.5 -145t195.5 -47q81 0 139.5 14.5t106.5 61.5q55 51 55 188z" />
    <glyph glyph-name="oslash" unicode="&#xf8;" horiz-adv-x="1077" 
d="M936 494q0 -79 -10 -150t-37 -135t-76 -113q-110 -108 -274 -108q-123 0 -215 59l-82 -137h-99l115 192q-117 125 -117 392q0 124 26 225t97 172q108 108 275 108q123 0 215 -61l82 139h98l-115 -192q68 -71 92.5 -168.5t24.5 -222.5zM831 494q0 100 -11.5 173.5
t-53.5 129.5l-393 -666q73 -51 166 -51q120 0 204 84q55 55 71.5 135.5t16.5 194.5zM705 856q-74 51 -166 51q-123 0 -205 -84q-55 -55 -71.5 -137.5t-16.5 -191.5q0 -100 11.5 -172.5t53.5 -131.5z" />
    <glyph glyph-name="questiondown" unicode="&#xbf;" horiz-adv-x="999" 
d="M524 850h-137v137h137v-137zM836 -123q0 -96 -47 -179.5t-130 -132t-190 -48.5q-102 0 -186 46.5t-132.5 129t-48.5 184.5q0 67 22.5 122t68.5 122l174 256q36 54 36 123v96h105v-92q0 -55 -13.5 -95.5t-45.5 -89.5l-173 -253q-35 -54 -52 -94.5t-17 -94.5
q0 -113 75 -190.5t187 -77.5q118 0 190 78.5t72 189.5h105z" />
    <glyph glyph-name="exclamdown" unicode="&#xa1;" horiz-adv-x="623" 
d="M350 850h-137v137h137v-137zM338 -471h-113l6 1065h101z" />
    <glyph glyph-name="logicalnot" unicode="&#xac;" 
d="M944 219h-96v273h-739v96h835v-369z" />
    <glyph glyph-name="radical" horiz-adv-x="1126" 
d="M1065 1360h-180l-445 -1360h-94l-326 987h115l258 -792l408 1263h264v-98z" />
    <glyph glyph-name="florin" unicode="&#x192;" horiz-adv-x="807" 
d="M745 1366h-88q-150 0 -180 -164l-74 -424h224v-78h-238l-207 -1171h-104l207 1171h-224v78h238l74 422q14 75 51 134t96.5 91.5t134.5 32.5h90v-92z" />
    <glyph glyph-name="approxequal" 
d="M944 731q-80 -80 -127 -103.5t-110 -23.5q-30 0 -64 9t-75.5 26t-69.5 29q-68 28 -95 37.5t-61 9.5q-46 0 -78.5 -16.5t-91.5 -75.5l-63 63q77 79 125 103t112 24q23 0 49.5 -5.5t45 -12t53 -20.5t61.5 -25q24 -10 54 -23t55 -19t47 -6q45 0 78 17t92 76zM944 403
q-80 -80 -127 -103.5t-110 -23.5q-30 0 -64 9t-75.5 26t-69.5 29q-48 21 -83.5 34t-72.5 13q-46 0 -78.5 -16.5t-91.5 -75.5l-63 63q77 79 125 103t112 24q45 0 92 -16.5t117 -46.5q24 -10 53.5 -22.5t52 -18.5t50.5 -6q45 0 78 16.5t92 75.5z" />
    <glyph glyph-name="Delta" horiz-adv-x="1210" 
d="M1190 0h-1170l537 1458h96zM1047 98l-443 1213l-440 -1213h883z" />
    <glyph glyph-name="guillemotleft" unicode="&#xab;" horiz-adv-x="1079" 
d="M911 141l-401 402l401 401v-135l-266 -266l266 -267v-135zM487 141l-401 402l401 401v-135l-266 -266l266 -267v-135z" />
    <glyph glyph-name="guillemotright" unicode="&#xbb;" horiz-adv-x="1079" 
d="M993 543l-401 -402v135l266 267l-266 266v135zM569 543l-401 -402v135l266 267l-266 266v135z" />
    <glyph glyph-name="ellipsis" unicode="&#x2026;" horiz-adv-x="1483" 
d="M1288 0h-151v152h151v-152zM817 0h-151v152h151v-152zM346 0h-151v152h151v-152z" />
    <glyph glyph-name="nonbreakingspace" unicode="&#xa0;" horiz-adv-x="522" 
 />
    <glyph glyph-name="Agrave" unicode="&#xc0;" horiz-adv-x="1233" 
d="M1202 0h-119l-127 354h-680l-126 -354h-119l536 1458h99zM922 453l-306 858l-305 -858h611zM712 1597h-119l-217 301h138z" />
    <glyph glyph-name="Atilde" unicode="&#xc3;" horiz-adv-x="1233" 
d="M1202 0h-119l-127 354h-680l-126 -354h-119l536 1458h99zM922 453l-306 858l-305 -858h611zM921 1726q-39 -39 -74.5 -62.5t-58.5 -29.5t-49 -6q-37 0 -66.5 12t-74.5 37q-73 43 -115 43q-29 0 -54 -12.5t-67 -54.5l-61 59q65 65 103.5 81.5t78.5 16.5q44 0 73.5 -11.5
t67.5 -37.5q42 -25 64 -34t51 -9q53 0 121 68z" />
    <glyph glyph-name="Otilde" unicode="&#xd5;" horiz-adv-x="1335" 
d="M1167 729q0 -197 -7 -290t-35 -165t-93 -137q-71 -71 -165.5 -110t-198.5 -39t-199 39t-166 110q-65 65 -93 137t-35 165t-7 290t7 290t35 165t93 137q71 71 165.5 110t199.5 39t199 -39t165 -110q65 -65 93 -137t35 -165t7 -290zM1057 729q0 173 -7 264t-31 153.5
t-75 113.5q-56 56 -126.5 84t-149.5 28q-78 0 -149.5 -28t-127.5 -84q-39 -39 -60.5 -81t-33.5 -106t-15 -146t-3 -198q0 -173 7 -263.5t31 -153.5t74 -113q55 -55 127 -84t150 -29q79 0 150 29t126 84q52 52 75.5 114t30.5 152.5t7 263.5zM973 1726q-39 -39 -74.5 -62.5
t-58.5 -29.5t-49 -6q-37 0 -66.5 12t-74.5 37q-73 43 -115 43q-29 0 -54 -12.5t-67 -54.5l-61 59q65 65 103.5 81.5t78.5 16.5q44 0 73.5 -11.5t67.5 -37.5q42 -25 64 -34t51 -9q53 0 121 68z" />
    <glyph glyph-name="OE" unicode="&#x152;" horiz-adv-x="2042" 
d="M1927 0h-870v174q-74 -92 -175 -139t-214 -47q-104 0 -199 39t-166 110q-65 65 -93 137t-35 165t-7 290t7 290t35 165t93 137q71 71 165.5 110t199.5 39q119 0 217.5 -47t171.5 -139v174h864v-96h-756q0 -130 0.5 -211t1 -162.5t0.5 -210.5h641v-86h-641
q0 -198 -0.5 -322.5t-1.5 -273.5h762v-96zM1057 729q0 173 -7 264t-31 153.5t-75 113.5q-56 56 -126.5 84t-149.5 28q-78 0 -149.5 -28t-127.5 -84q-39 -39 -60.5 -81t-33.5 -106t-15 -146t-3 -198q0 -173 7 -263.5t31 -153.5t74 -113q55 -55 127 -84t150 -29q79 0 150 29
t126 84q52 52 75.5 114t30.5 152.5t7 263.5z" />
    <glyph glyph-name="oe" unicode="&#x153;" horiz-adv-x="1761" 
d="M1622 471h-686q0 -188 83 -288.5t238 -100.5q86 0 147 27t126 92l78 -62q-79 -79 -159.5 -115t-197.5 -36q-266 0 -364 215q-32 -69 -84 -117t-120 -73t-144 -25q-165 0 -275 108q-49 49 -76 112.5t-37 133.5t-10 152q0 124 26 225t97 172q108 108 275 108q118 0 209 -56
t139 -159q49 105 135.5 160t204.5 55q122 0 211 -57t136.5 -165.5t47.5 -258.5v-47zM1518 555q-3 66 -9.5 102t-25.5 84q-31 76 -102 121t-154 45q-85 0 -154 -44.5t-102 -121.5q-19 -48 -25.5 -84t-9.5 -102h582zM831 494q0 114 -16.5 194t-71.5 135q-82 84 -204 84
q-123 0 -205 -84q-55 -55 -71.5 -137.5t-16.5 -191.5q0 -108 16.5 -191.5t71.5 -138.5q84 -84 205 -84q120 0 204 84q55 55 71.5 135.5t16.5 194.5z" />
    <glyph glyph-name="emdash" unicode="&#x2013;" 
d="M944 492h-835v96h835v-96z" />
    <glyph glyph-name="endash" unicode="&#x2014;" horiz-adv-x="1788" 
d="M1620 492h-1452v96h1452v-96z" />
    <glyph glyph-name="quotedblleft" unicode="&#x201c;" horiz-adv-x="852" 
d="M657 1315h-143v143l143 144v-287zM338 1315h-143v143l143 144v-287z" />
    <glyph glyph-name="quotedblright" unicode="&#x201d;" horiz-adv-x="852" 
d="M657 1315l-143 -144v287h143v-143zM338 1315l-143 -144v287h143v-143z" />
    <glyph glyph-name="quoteleft" unicode="&#x2018;" horiz-adv-x="532" 
d="M338 1315h-143v143l143 144v-287z" />
    <glyph glyph-name="quoteright" unicode="&#x2019;" horiz-adv-x="532" 
d="M338 1315l-143 -144v287h143v-143z" />
    <glyph glyph-name="divide" unicode="&#xf7;" 
d="M598 813h-143v143h143v-143zM944 492h-835v96h835v-96zM598 123h-143v143h143v-143z" />
    <glyph glyph-name="lozenge" horiz-adv-x="1339" 
d="M1192 729l-522 -743l-523 743l523 744zM1075 729l-405 584l-406 -584l406 -588z" />
    <glyph glyph-name="ydieresis" unicode="&#xff;" horiz-adv-x="881" 
d="M852 987l-459 -1255q-26 -79 -67 -115q-67 -63 -187 -63h-49v92h39q56 0 88 13t53 43t39 79l80 219l-360 987h114l297 -864l297 864h115zM712 1229h-118v157h118v-157zM286 1229h-118v157h118v-157z" />
    <glyph glyph-name="Ydieresis" unicode="&#x178;" horiz-adv-x="1012" 
d="M991 1458l-430 -854v-604h-110v604l-431 854h119l371 -737l362 737h119zM778 1618h-118v157h118v-157zM352 1618h-118v157h118v-157z" />
    <glyph glyph-name="fraction" horiz-adv-x="362" 
d="M567 1458l-680 -1458h-92l680 1458h92z" />
    <glyph glyph-name="currency" unicode="&#xa4;" horiz-adv-x="1346" 
d="M1171 111l-65 -66l-154 152q-120 -99 -280 -99t-281 99l-151 -152l-66 66l152 151q-99 121 -99 281q0 80 26 153t73 129l-152 150l66 65l151 -149q120 96 281 96q77 0 151 -25t129 -71l154 149l65 -65l-151 -150q96 -118 96 -282q0 -161 -96 -281zM1018 543
q0 94 -46.5 173.5t-126 126t-173.5 46.5q-95 0 -174 -46t-125.5 -126.5t-46.5 -173.5q0 -94 46 -174t126 -126t174 -46q93 0 173.5 46.5t126.5 125.5t46 174z" />
    <glyph glyph-name="guilsinglleft" unicode="&#x2039;" horiz-adv-x="655" 
d="M487 141l-401 402l401 401v-135l-266 -266l266 -267v-135z" />
    <glyph glyph-name="guilsinglright" unicode="&#x203a;" horiz-adv-x="655" 
d="M569 543l-401 -402v135l266 267l-266 266v135z" />
    <glyph glyph-name="fi" horiz-adv-x="1120" 
d="M934 1329h-129v129h129v-129zM922 0h-105v987h105v-987zM557 909h-223v-909h-105v909h-135v78h135v213q0 76 27.5 134.5t82 91t128.5 32.5h90v-92h-72q-151 0 -151 -164v-215h223v-78z" />
    <glyph glyph-name="fl" horiz-adv-x="1200" 
d="M1135 0h-91q-116 0 -176.5 69t-60.5 187v1202h104v-1200q0 -86 34 -126t118 -40h72v-92zM557 909h-223v-909h-105v909h-135v78h135v213q0 76 27.5 134.5t82 91t128.5 32.5h90v-92h-72q-151 0 -151 -164v-215h223v-78z" />
    <glyph glyph-name="daggerdbl" unicode="&#x2021;" horiz-adv-x="1257" 
d="M1094 -41h-416v-430h-105v430h-409v92h409v885h-409v92h409v430h105v-430h416v-92h-416v-885h416v-92z" />
    <glyph glyph-name="periodcentered" unicode="&#x2219;" horiz-adv-x="541" 
d="M346 465h-151v151h151v-151z" />
    <glyph glyph-name="quotesinglbase" unicode="&#x201a;" horiz-adv-x="532" 
d="M338 0l-143 -143v286h143v-143z" />
    <glyph glyph-name="quotedblbase" unicode="&#x201e;" horiz-adv-x="852" 
d="M657 0l-143 -143v286h143v-143zM338 0l-143 -143v286h143v-143z" />
    <glyph glyph-name="perthousand" unicode="&#x2030;" horiz-adv-x="2392" 
d="M2251 260q0 -120 -75.5 -197t-193.5 -77q-119 0 -194.5 77t-75.5 197v219q0 121 75 198t195 77q80 0 140.5 -35t94.5 -97.5t34 -142.5v-219zM1554 260q0 -80 -33.5 -142t-94 -97t-140.5 -35q-119 0 -194.5 77t-75.5 197v219q0 121 75 198t195 77q80 0 140.5 -35t94 -97.5
t33.5 -142.5v-219zM1235 1458l-680 -1458h-92l680 1458h92zM680 979q0 -119 -74.5 -195.5t-193.5 -76.5q-120 0 -195.5 76.5t-75.5 195.5v219q0 80 34 142.5t95.5 97.5t141.5 35q78 0 139 -35t95 -97.5t34 -142.5v-219zM2161 262v213q0 201 -179 201q-180 0 -180 -201v-211
q0 -201 180 -201q179 0 179 199zM1464 264v211q0 95 -43.5 148t-134.5 53q-180 0 -180 -201v-211q0 -201 180 -201q91 0 134.5 53t43.5 148zM590 983v211q0 95 -43.5 148t-134.5 53q-93 0 -137 -53t-44 -148v-211q0 -199 181 -199q90 0 134 52.5t44 146.5z" />
    <glyph glyph-name="Acircumflex" unicode="&#xc2;" horiz-adv-x="1233" 
d="M1202 0h-119l-127 354h-680l-126 -354h-119l536 1458h99zM922 453l-306 858l-305 -858h611zM923 1597h-117l-190 224l-190 -224h-117l252 301h110z" />
    <glyph glyph-name="Ecircumflex" unicode="&#xca;" horiz-adv-x="1225" 
d="M1110 0h-885v1458h885v-98h-774v-576h659v-98h-659v-588h774v-98zM950 1597h-117l-190 224l-190 -224h-117l252 301h110z" />
    <glyph glyph-name="Aacute" unicode="&#xc1;" horiz-adv-x="1233" 
d="M1202 0h-119l-127 354h-680l-126 -354h-119l536 1458h99zM922 453l-306 858l-305 -858h611zM856 1898l-217 -301h-119l198 301h138z" />
    <glyph glyph-name="Edieresis" unicode="&#xcb;" horiz-adv-x="1225" 
d="M1110 0h-885v1458h885v-98h-774v-576h659v-98h-659v-588h774v-98zM915 1618h-118v157h118v-157zM489 1618h-118v157h118v-157z" />
    <glyph glyph-name="Egrave" unicode="&#xc8;" horiz-adv-x="1225" 
d="M1110 0h-885v1458h885v-98h-774v-576h659v-98h-659v-588h774v-98zM739 1597h-119l-217 301h138z" />
    <glyph glyph-name="Iacute" unicode="&#xcd;" horiz-adv-x="561" 
d="M336 0h-111v1458h111v-1458zM512 1898l-217 -301h-119l198 301h138z" />
    <glyph glyph-name="Icircumflex" unicode="&#xce;" horiz-adv-x="561" 
d="M336 0h-111v1458h111v-1458zM583 1597h-117l-190 224l-190 -224h-117l252 301h110z" />
    <glyph glyph-name="Idieresis" unicode="&#xcf;" horiz-adv-x="561" 
d="M336 0h-111v1458h111v-1458zM555 1618h-118v157h118v-157zM129 1618h-118v157h118v-157z" />
    <glyph glyph-name="Igrave" unicode="&#xcc;" horiz-adv-x="561" 
d="M336 0h-111v1458h111v-1458zM395 1597h-119l-217 301h138z" />
    <glyph glyph-name="Oacute" unicode="&#xd3;" horiz-adv-x="1335" 
d="M1167 729q0 -197 -7 -290t-35 -165t-93 -137q-71 -71 -165.5 -110t-198.5 -39t-199 39t-166 110q-65 65 -93 137t-35 165t-7 290t7 290t35 165t93 137q71 71 165.5 110t199.5 39t199 -39t165 -110q65 -65 93 -137t35 -165t7 -290zM1057 729q0 173 -7 264t-31 153.5
t-75 113.5q-56 56 -126.5 84t-149.5 28q-78 0 -149.5 -28t-127.5 -84q-39 -39 -60.5 -81t-33.5 -106t-15 -146t-3 -198q0 -173 7 -263.5t31 -153.5t74 -113q55 -55 127 -84t150 -29q79 0 150 29t126 84q52 52 75.5 114t30.5 152.5t7 263.5zM908 1898l-217 -301h-119l198 301
h138z" />
    <glyph glyph-name="Ocircumflex" unicode="&#xd4;" horiz-adv-x="1335" 
d="M1167 729q0 -197 -7 -290t-35 -165t-93 -137q-71 -71 -165.5 -110t-198.5 -39t-199 39t-166 110q-65 65 -93 137t-35 165t-7 290t7 290t35 165t93 137q71 71 165.5 110t199.5 39t199 -39t165 -110q65 -65 93 -137t35 -165t7 -290zM1057 729q0 173 -7 264t-31 153.5
t-75 113.5q-56 56 -126.5 84t-149.5 28q-78 0 -149.5 -28t-127.5 -84q-39 -39 -60.5 -81t-33.5 -106t-15 -146t-3 -198q0 -173 7 -263.5t31 -153.5t74 -113q55 -55 127 -84t150 -29q79 0 150 29t126 84q52 52 75.5 114t30.5 152.5t7 263.5zM975 1597h-117l-190 224
l-190 -224h-117l252 301h110z" />
    <glyph glyph-name="Ograve" unicode="&#xd2;" horiz-adv-x="1335" 
d="M1167 729q0 -197 -7 -290t-35 -165t-93 -137q-71 -71 -165.5 -110t-198.5 -39t-199 39t-166 110q-65 65 -93 137t-35 165t-7 290t7 290t35 165t93 137q71 71 165.5 110t199.5 39t199 -39t165 -110q65 -65 93 -137t35 -165t7 -290zM1057 729q0 173 -7 264t-31 153.5
t-75 113.5q-56 56 -126.5 84t-149.5 28q-78 0 -149.5 -28t-127.5 -84q-39 -39 -60.5 -81t-33.5 -106t-15 -146t-3 -198q0 -173 7 -263.5t31 -153.5t74 -113q55 -55 127 -84t150 -29q79 0 150 29t126 84q52 52 75.5 114t30.5 152.5t7 263.5zM764 1597h-119l-217 301h138z" />
    <glyph glyph-name="Uacute" unicode="&#xda;" horiz-adv-x="1407" 
d="M1204 473q0 -140 -63.5 -251t-177 -172.5t-258.5 -61.5q-144 0 -258.5 61.5t-178 172.5t-63.5 251v985h110v-971q0 -120 48.5 -210.5t137.5 -140.5t204 -50q113 0 202.5 50t138 140.5t48.5 210.5v971h110v-985zM945 1898l-217 -301h-119l198 301h138z" />
    <glyph glyph-name="Ucircumflex" unicode="&#xdb;" horiz-adv-x="1407" 
d="M1204 473q0 -140 -63.5 -251t-177 -172.5t-258.5 -61.5q-144 0 -258.5 61.5t-178 172.5t-63.5 251v985h110v-971q0 -120 48.5 -210.5t137.5 -140.5t204 -50q113 0 202.5 50t138 140.5t48.5 210.5v971h110v-985zM1012 1597h-117l-190 224l-190 -224h-117l252 301h110z" />
    <glyph glyph-name="Ugrave" unicode="&#xd9;" horiz-adv-x="1407" 
d="M1204 473q0 -140 -63.5 -251t-177 -172.5t-258.5 -61.5q-144 0 -258.5 61.5t-178 172.5t-63.5 251v985h110v-971q0 -120 48.5 -210.5t137.5 -140.5t204 -50q113 0 202.5 50t138 140.5t48.5 210.5v971h110v-985zM801 1597h-119l-217 301h138z" />
    <glyph glyph-name="dotlessi" horiz-adv-x="502" 
d="M303 0h-104v987h104v-987z" />
    <glyph glyph-name="circumflex" unicode="&#x2c6;" horiz-adv-x="1024" 
d="M819 1208h-117l-190 224l-190 -224h-117l252 301h110z" />
    <glyph glyph-name="tilde" unicode="&#x2dc;" horiz-adv-x="1024" 
d="M817 1337q-39 -39 -74.5 -62.5t-58.5 -29.5t-49 -6q-37 0 -66.5 12t-74.5 37q-73 43 -115 43q-29 0 -54 -12.5t-67 -54.5l-61 59q65 65 103.5 81.5t78.5 16.5q44 0 73.5 -11.5t67.5 -37.5q42 -25 64 -34t51 -9q53 0 121 68z" />
    <glyph glyph-name="macron" unicode="&#xaf;" horiz-adv-x="1024" 
d="M815 1245h-606v94h606v-94z" />
    <glyph glyph-name="breve" horiz-adv-x="1024" 
d="M850 1479q-14 -134 -94.5 -205.5t-239.5 -71.5q-312 0 -342 277h96q14 -87 78 -136t168 -49t169 49t77 136h88z" />
    <glyph glyph-name="dotaccent" horiz-adv-x="1024" 
d="M575 1317h-126v129h126v-129z" />
    <glyph glyph-name="ring" horiz-adv-x="1024" 
d="M745 1386q0 -65 -31.5 -118.5t-85 -85t-116.5 -31.5t-116.5 31.5t-85 85t-31.5 118.5t31.5 118t84 84.5t117.5 31.5t117.5 -31.5t84 -84.5t31.5 -118zM662 1386q0 61 -43.5 104.5t-106.5 43.5q-61 0 -105.5 -43.5t-44.5 -104.5t45 -105t105 -44q41 0 75 20t54.5 54
t20.5 75z" />
    <glyph glyph-name="cedilla" unicode="&#xb8;" horiz-adv-x="1024" 
d="M631 -143l-131 -308h-129l147 308h113z" />
    <glyph glyph-name="hungarumlaut" horiz-adv-x="1024" 
d="M903 1509l-219 -301h-117l199 301h137zM602 1509l-217 -301h-119l199 301h137z" />
    <glyph glyph-name="ogonek" horiz-adv-x="1024" 
d="M653 -451h-129l-131 308h113z" />
    <glyph glyph-name="caron" horiz-adv-x="1024" 
d="M819 1509l-252 -301h-110l-252 301h117l190 -223l190 223h117z" />
  </font>
</defs>
</svg>
