<?xml version="1.0" standalone="no"?>
<!DOCTYPE svg PUBLIC "-//W3C//DTD SVG 1.1//EN" "http://www.w3.org/Graphics/SVG/1.1/DTD/svg11.dtd" >
<svg xmlns="http://www.w3.org/2000/svg" xmlns:xlink="http://www.w3.org/1999/xlink" version="1.1">
<metadata>
Created by FontForge 20161003 at Tue Sep 25 14:18:20 2018
 By www-data
</metadata>
<defs>
<font id="DINAlternate-Regular" horiz-adv-x="1085" >
  <font-face 
    font-family="DIN Alternate"
    font-weight="400"
    font-stretch="normal"
    units-per-em="2048"
    panose-1="2 2 5 0 0 0 0 0 0 0"
    ascent="1638"
    descent="-410"
    x-height="1008"
    cap-height="1458"
    bbox="-213 -463 2284 2018"
    underline-thickness="51"
    underline-position="-164"
    unicode-range="U+0020-2219"
  />
<missing-glyph horiz-adv-x="1536" 
d="M256 0v1280h1024v-1280h-1024zM1247 33v1214h-958v-1214h958z" />
    <glyph glyph-name=".notdef" horiz-adv-x="1536" 
d="M256 0v1280h1024v-1280h-1024zM1247 33v1214h-958v-1214h958z" />
    <glyph glyph-name=".null" horiz-adv-x="0" 
 />
    <glyph glyph-name="nonmarkingreturn" horiz-adv-x="0" 
 />
    <glyph glyph-name="Eth" unicode="&#xd0;" horiz-adv-x="1407" 
d="M1251 729q0 -179 -6.5 -264t-24 -137.5t-60 -113t-106 -110t-146 -77t-179.5 -27.5h-489v676h-160v121h160v661h501q276 0 420 -219q42 -64 60.5 -119.5t24 -139.5t5.5 -251zM1096 721q0 161 -4.5 231.5t-20 122t-49.5 99.5q-58 79 -131 113t-178 34h-316v-524h330v-121
h-330v-539h316q106 0 188 39t131 113q44 65 54 139t10 293z" />
    <glyph glyph-name="eth" unicode="&#xf0;" 
d="M952 500q0 -132 -26 -230.5t-97 -169.5q-109 -112 -286 -112t-287 112q-49 49 -75 111t-36 132t-10 157q0 88 10 157.5t35.5 130.5t75.5 111q92 96 250 107q108 0 153 -21l-118 203h-238v106h180l-96 168h154l96 -168h168v-106h-111l129 -227q80 -137 104.5 -229.5
t24.5 -231.5zM805 500q0 110 -15 184.5t-65 124.5q-74 74 -182 74q-105 0 -181 -74q-49 -50 -64 -127.5t-15 -181.5t15 -180.5t64 -126.5q74 -74 181 -74q110 0 182 74q50 50 65 123.5t15 183.5z" />
    <glyph glyph-name="Lslash" horiz-adv-x="1192" 
d="M1130 0h-901v592l-149 -94v137l149 94v729h158v-631l315 201v-135l-315 -201v-553h743v-139z" />
    <glyph glyph-name="lslash" horiz-adv-x="645" 
d="M569 0h-106q-85 0 -143 34.5t-86.5 95t-28.5 138.5v432l-129 -79v127l129 79v631h147v-540l166 102v-127l-166 -102v-517q0 -77 30 -112t105 -35h82v-127z" />
    <glyph glyph-name="Scaron" unicode="&#x160;" horiz-adv-x="1204" 
d="M1090 401q0 -126 -62.5 -219.5t-176 -143.5t-265.5 -50q-110 0 -197 19.5t-160.5 61.5t-142.5 111l107 107q59 -59 119 -94.5t126.5 -50.5t151.5 -15q161 0 252.5 72t91.5 198q0 57 -18 106t-52 77q-33 30 -71 43.5t-119 25.5l-170 27q-174 28 -268 110q-111 99 -111 273
q0 121 56 215t162.5 145t248.5 51q138 0 238.5 -36.5t195.5 -122.5l-100 -101q-69 63 -149.5 94t-190.5 31q-95 0 -164.5 -33.5t-106 -94t-36.5 -142.5q0 -112 65 -168q69 -60 197 -80l159 -24q96 -14 158.5 -38.5t108.5 -64.5q123 -103 123 -289zM918 1913l-256 -313h-140
l-256 313h142l184 -215l184 215h142z" />
    <glyph glyph-name="scaron" unicode="&#x161;" horiz-adv-x="1016" 
d="M911 295q0 -96 -51 -165t-143 -105.5t-215 -36.5q-131 0 -232 34t-182 111l98 98q110 -116 314 -116q126 0 197 45t71 133q0 66 -40.5 103t-127.5 44l-166 15q-301 25 -301 270q0 136 103.5 215.5t267.5 79.5q109 0 203 -27.5t159 -81.5l-96 -96q-105 80 -268 80
q-109 0 -167.5 -44t-58.5 -122q0 -133 177 -147l161 -15q143 -13 220 -76t77 -196zM830 1530l-256 -313h-140l-256 313h142l184 -215l184 215h142z" />
    <glyph glyph-name="Yacute" unicode="&#xdd;" horiz-adv-x="1053" 
d="M1036 1458l-430 -856v-602h-155v602l-435 856h168l344 -698l340 698h168zM782 1913l-221 -313h-135l180 313h176z" />
    <glyph glyph-name="yacute" unicode="&#xfd;" horiz-adv-x="915" 
d="M893 1008l-459 -1252q-29 -79 -72 -118q-71 -70 -196 -70h-64v131h45q75 0 108 27t58 98l72 196l-362 988h159l277 -809l274 809h160zM713 1530l-221 -313h-135l180 313h176z" />
    <glyph glyph-name="Thorn" unicode="&#xde;" horiz-adv-x="1315" 
d="M1204 735q0 -128 -56.5 -225.5t-158.5 -150t-235 -52.5h-387v-307h-156v1458h156v-293h387q100 0 183.5 -30.5t143 -86.5t91.5 -135t32 -178zM1049 735q0 93 -39 159t-109.5 98t-161.5 32h-372v-578h372q91 0 162 32.5t109.5 98t38.5 158.5z" />
    <glyph glyph-name="thorn" unicode="&#xfe;" horiz-adv-x="1118" 
d="M985 504q0 -139 -26.5 -249.5t-96.5 -178.5q-39 -39 -105 -63.5t-141 -24.5q-59 0 -107 11.5t-93.5 41t-83.5 78.5v-570h-148v1909h148v-567q57 73 125 101t159 28q75 0 141 -23.5t105 -64.5q70 -68 96.5 -178.5t26.5 -249.5zM838 504q0 178 -51 281.5t-201 103.5
q-149 0 -201.5 -104.5t-52.5 -280.5q0 -177 52 -281t202 -104t201 103t51 282z" />
    <glyph glyph-name="Zcaron" horiz-adv-x="1139" 
d="M1022 0h-905v147l729 1172h-701v139h877v-131l-735 -1188h735v-139zM908 1913l-256 -313h-140l-256 313h142l184 -215l184 215h142z" />
    <glyph glyph-name="zcaron" horiz-adv-x="940" 
d="M834 0h-732v127l562 750h-531v131h701v-125l-564 -752h564v-131zM809 1530l-256 -313h-140l-256 313h142l184 -215l184 215h142z" />
    <glyph glyph-name="onehalf" unicode="&#xbd;" horiz-adv-x="1618" 
d="M1520 0h-504v106l338 414q47 60 47 119q0 62 -35.5 99.5t-97.5 37.5q-58 0 -95.5 -34t-37.5 -103h-119q0 73 32 128.5t90.5 85.5t129.5 30q74 0 131.5 -30t89 -86.5t31.5 -127.5q0 -53 -18.5 -94t-61.5 -94l-281 -345h361v-106zM1135 1458l-682 -1458h-123l682 1458h123z
M375 584h-117v743l-170 -149v135l170 145h117v-874z" />
    <glyph glyph-name="onequarter" unicode="&#xbc;" horiz-adv-x="1591" 
d="M1509 131h-96v-131h-115v131h-352v109l309 634h127l-307 -634h223v215h115v-215h96v-109zM1159 1458l-682 -1458h-123l682 1458h123zM375 584h-117v743l-170 -149v135l170 145h117v-874z" />
    <glyph glyph-name="onesuperior" unicode="&#xb9;" horiz-adv-x="535" 
d="M375 584h-117v743l-170 -149v135l170 145h117v-874z" />
    <glyph glyph-name="threequarters" unicode="&#xbe;" horiz-adv-x="1683" 
d="M1602 131h-97v-131h-114v131h-353v109l310 634h127l-310 -634h226v215h114v-215h97v-109zM1268 1458l-684 -1458h-123l684 1458h123zM631 829q0 -81 -35 -138.5t-96 -87.5t-133 -30q-113 0 -189 62t-80 182h119q3 -66 46 -101.5t104 -35.5q64 0 105.5 40.5t41.5 108.5
q0 70 -39 110t-115 40h-18v102h18q70 0 105 37t35 103q0 67 -39 103t-96 36q-60 0 -97 -35t-41 -94h-116q4 73 38 125.5t91.5 81t124.5 28.5q111 0 181 -67.5t70 -175.5q0 -136 -110 -189q125 -53 125 -205z" />
    <glyph glyph-name="threesuperior" unicode="&#xb3;" horiz-adv-x="729" 
d="M631 829q0 -81 -35 -138.5t-96 -87.5t-133 -30q-113 0 -189 62t-80 182h119q3 -66 46 -101.5t104 -35.5q64 0 105.5 40.5t41.5 108.5q0 70 -39 110t-115 40h-18v102h18q70 0 105 37t35 103q0 67 -39 103t-96 36q-60 0 -97 -35t-41 -94h-116q4 73 38 125.5t91.5 81
t124.5 28.5q111 0 181 -67.5t70 -175.5q0 -136 -110 -189q125 -53 125 -205z" />
    <glyph glyph-name="twosuperior" unicode="&#xb2;" horiz-adv-x="700" 
d="M602 584h-504v106l338 414q47 58 47 119q0 62 -35.5 99.5t-97.5 37.5q-58 0 -95.5 -33.5t-37.5 -103.5h-119q0 109 71 176t181 67q74 0 131 -29.5t89 -84.5t32 -129q0 -53 -18 -94.5t-62 -94.5l-282 -344h362v-106z" />
    <glyph glyph-name="brokenbar" unicode="&#xa6;" horiz-adv-x="686" 
d="M408 893h-148v717h148v-717zM408 -152h-148v717h148v-717z" />
    <glyph glyph-name="minus" unicode="&#xad;" horiz-adv-x="1069" 
d="M963 483h-857v138h857v-138z" />
    <glyph glyph-name="multiply" unicode="&#xd7;" horiz-adv-x="1069" 
d="M936 244l-92 -92l-309 309l-310 -309l-92 92l309 309l-309 309l92 92l310 -311l309 311l92 -92l-311 -309z" />
    <glyph glyph-name="space" unicode=" " horiz-adv-x="510" 
 />
    <glyph glyph-name="exclam" unicode="!" horiz-adv-x="647" 
d="M442 1458l-26 -1048h-119l-27 1048h172zM459 96q0 -44 -29 -73t-74 -29q-43 0 -73.5 29.5t-30.5 72.5q0 44 30.5 73.5t73.5 29.5q20 0 40.5 -8t33.5 -21t21 -33.5t8 -40.5z" />
    <glyph glyph-name="quotedbl" unicode="&#x22;" horiz-adv-x="866" 
d="M686 1110h-162v348h162v-348zM342 1110h-162v348h162v-348z" />
    <glyph glyph-name="numbersign" unicode="#" horiz-adv-x="1337" 
d="M1233 885h-197l-47 -289h182v-131h-202l-74 -465h-152l74 465h-328l-71 -465h-152l74 465h-182v131h204l48 289h-189v135h207l70 440h153l-71 -440h325l70 440h149l-69 -440h178v-135zM885 885h-326l-47 -289h326z" />
    <glyph glyph-name="dollar" unicode="$" horiz-adv-x="1221" 
d="M1106 401q0 -88 -30.5 -159.5t-90 -125.5t-142 -85.5t-184.5 -38.5v-225h-122v221q-144 6 -249 51.5t-202 140.5l107 107q79 -79 162.5 -116t189.5 -42v543l-41 4q-79 7 -147.5 38t-118.5 72q-113 101 -113 273q0 115 49.5 204t141.5 141.5t221 63.5v183h122v-183
q117 -6 207 -44t174 -113l-100 -101q-64 57 -130.5 87t-156.5 36v-530l64 -10q67 -12 114 -25.5t85 -33t65 -44.5q60 -50 92.5 -123.5t32.5 -165.5zM545 817v516q-86 -8 -145 -42t-90 -93t-31 -133q0 -112 65 -168q75 -62 201 -80zM950 397q0 121 -71 183q-43 38 -87 50
t-139 25v-526q139 9 218 80t79 188z" />
    <glyph glyph-name="percent" unicode="%" horiz-adv-x="1706" 
d="M1575 262q0 -124 -78.5 -200t-198.5 -76q-79 0 -142 34t-98.5 97t-35.5 145v215q0 63 20 113t58 88t89 57t109 19q120 0 198.5 -76.5t78.5 -200.5v-215zM1257 1458l-684 -1458h-122l684 1458h122zM686 981q0 -122 -78 -198t-198 -76q-121 0 -199 75.5t-78 198.5v215
q0 82 35.5 145t98.5 97.5t143 34.5q121 0 198.5 -76.5t77.5 -200.5v-215zM1458 266v207q0 85 -39 131.5t-121 46.5q-159 0 -159 -178v-207q0 -178 159 -178q81 0 120.5 47t39.5 131zM569 985v207q0 85 -39 131.5t-120 46.5q-160 0 -160 -178v-207q0 -176 160 -176
q81 0 120 46t39 130z" />
    <glyph glyph-name="ampersand" unicode="&#x26;" horiz-adv-x="1513" 
d="M1374 0h-194l-131 160q-184 -172 -431 -172q-138 0 -242.5 52.5t-161 150t-56.5 221.5q0 146 80.5 240t234.5 196q-74 89 -116 160.5t-42 156.5q0 86 41.5 155.5t115 109.5t165.5 40q89 0 162 -40.5t114 -111t41 -155.5q0 -148 -161 -260q-18 -12 -51.5 -34.5
t-57.5 -39.5l373 -448q45 68 63 140.5t19 193.5h147q-3 -288 -135 -447zM809 1163q0 49 -22.5 89t-62 62.5t-87.5 22.5q-75 0 -121.5 -47.5t-46.5 -122.5q0 -47 28 -97.5t103 -141.5q14 9 39.5 26.5t38.5 26.5q63 44 97 84.5t34 97.5zM961 266l-402 484q-85 -59 -134 -100
t-82.5 -99t-33.5 -135q0 -85 39 -151.5t109 -103t159 -36.5q188 0 345 141z" />
    <glyph glyph-name="quotesingle" unicode="'" horiz-adv-x="522" 
d="M342 1110h-162v348h162v-348z" />
    <glyph glyph-name="parenleft" unicode="(" horiz-adv-x="610" 
d="M479 -92l-100 -101q-51 51 -69.5 70.5t-40.5 48t-38 58.5q-26 49 -34.5 100t-8.5 111v1069q0 130 43 211q26 46 53.5 77.5t94.5 98.5l100 -101q-54 -54 -74 -77.5t-36 -55.5q-33 -64 -33 -166v-1044q0 -102 33 -166q14 -28 29.5 -47.5t37.5 -41.5t43 -44z" />
    <glyph glyph-name="parenright" unicode=")" horiz-adv-x="610" 
d="M420 195q0 -137 -41 -211q-24 -45 -52.5 -77.5t-95.5 -99.5l-104 105q30 30 46.5 46t35 38.5t31.5 48.5q28 57 28 162v1044q0 105 -28 162q-15 32 -41 60.5t-72 72.5l104 105q67 -67 96.5 -100.5t51.5 -75.5q26 -46 33.5 -96t7.5 -115v-1069z" />
    <glyph glyph-name="asterisk" unicode="*" horiz-adv-x="971" 
d="M834 967l-58 -101l-239 146l8 -281h-119l8 281l-237 -146l-60 101l246 133l-246 135l60 98l237 -145l-8 280h119l-8 -280l239 145l58 -98l-246 -135z" />
    <glyph glyph-name="plus" unicode="+" horiz-adv-x="1069" 
d="M963 479h-359v-360h-137v360h-361v137h361v357h137v-357h359v-137z" />
    <glyph glyph-name="comma" unicode="," horiz-adv-x="541" 
d="M360 -133l-180 -162v475h180v-313z" />
    <glyph glyph-name="hyphen" unicode="-" horiz-adv-x="872" 
d="M717 483h-561v138h561v-138z" />
    <glyph glyph-name="period" unicode="." horiz-adv-x="557" 
d="M395 111q0 -47 -34 -82t-82 -35q-47 0 -82 35t-35 82q0 48 35 82t82 34q31 0 57.5 -16t42.5 -42.5t16 -57.5z" />
    <glyph glyph-name="slash" unicode="/" horiz-adv-x="727" 
d="M729 1610l-584 -1762h-145l584 1762h145z" />
    <glyph glyph-name="zero" unicode="0" horiz-adv-x="1069" 
d="M934 389q0 -119 -51.5 -210t-143.5 -141t-204 -50t-204.5 50.5t-144 141t-51.5 209.5v445q0 88 29.5 162.5t86 129t128.5 82t156 27.5q85 0 157 -28t127 -81t85 -128.5t30 -163.5v-445zM786 397v428q0 80 -29.5 143.5t-86 99.5t-135.5 36q-80 0 -136.5 -36t-86 -99.5
t-29.5 -143.5v-428q0 -79 30 -143t86.5 -99.5t135.5 -35.5q78 0 134.5 35.5t86.5 99.5t30 143z" />
    <glyph glyph-name="one" unicode="1" horiz-adv-x="764" 
d="M524 0h-147v1059l-273 -240v168l273 236h147v-1223z" />
    <glyph glyph-name="two" unicode="2" horiz-adv-x="1036" 
d="M922 0h-838v131l514 496q139 136 139 274q0 106 -70 175t-180 69q-105 0 -178 -69t-73 -179h-148q0 107 51.5 193.5t143.5 136t204 49.5q117 0 208 -49t140.5 -134t49.5 -190q0 -102 -49 -188t-140 -174l-417 -410h643v-131z" />
    <glyph glyph-name="three" unicode="3" horiz-adv-x="1055" 
d="M934 160q0 -130 -56.5 -223.5t-154.5 -141t-217 -47.5q-182 0 -300.5 98.5t-127.5 286.5h147q10 -129 89 -190.5t192 -61.5q80 0 143.5 33.5t100 96.5t36.5 151q0 137 -69.5 209.5t-216.5 72.5h-29v129h29q131 0 195.5 69t64.5 196q0 64 -18.5 113.5t-54 84t-82 51.5
t-99.5 17q-77 0 -133 -28.5t-88.5 -83t-40.5 -130.5h-148q9 117 64 200.5t145.5 128t200.5 44.5q117 0 208.5 -49.5t142 -139t50.5 -206.5q0 -236 -196 -324q223 -83 223 -356z" />
    <glyph glyph-name="four" unicode="4" horiz-adv-x="1108" 
d="M1026 61h-186v-313h-146v313h-620v136l540 1091h158l-543 -1091h465v419h146v-419h186v-136z" />
    <glyph glyph-name="five" unicode="5" horiz-adv-x="1059" 
d="M928 246q0 -133 -23 -224.5t-94 -162.5q-109 -109 -291 -109q-94 0 -169.5 28.5t-123.5 76.5q-90 93 -102 254h147q30 -228 248 -228q112 0 180 68q37 37 53.5 84t21.5 94.5t5 118.5q0 161 -51 257.5t-194 96.5q-94 0 -156.5 -38t-85.5 -105h-133v766h737v-131h-604v-463
q90 100 262 100q160 0 252 -92q71 -71 96 -169t25 -222z" />
    <glyph glyph-name="six" unicode="6" horiz-adv-x="1079" 
d="M975 451q0 -130 -53 -237t-152.5 -166.5t-228.5 -59.5q-131 0 -230.5 55.5t-153 159t-53.5 235.5q0 180 107 367l389 686h156l-369 -633q40 21 82 30t96 9q94 0 170 -32.5t129 -91.5t82 -141.5t29 -180.5zM827 442q0 71 -19 130.5t-55 105t-90 71t-124 25.5
q-87 0 -151.5 -41t-100 -116t-35.5 -175q0 -149 78.5 -239t208.5 -90t209 90t79 239z" />
    <glyph glyph-name="seven" unicode="7" horiz-adv-x="1028" 
d="M956 1092l-596 -1344h-155l594 1344h-561v-230h-146v361h864v-131z" />
    <glyph glyph-name="eight" unicode="8" horiz-adv-x="1102" 
d="M981 401q0 -118 -56.5 -213.5t-155.5 -147.5t-218 -52t-218 52t-155.5 147.5t-56.5 213.5q0 230 219 355q-91 53 -142 134.5t-51 188.5q0 83 30 156t84.5 125t129 81t160.5 29t160.5 -29t129 -81.5t84 -124.5t29.5 -156q0 -110 -50.5 -190.5t-141.5 -132.5
q219 -125 219 -355zM807 1077q0 74 -33 134t-91.5 94t-131.5 34q-74 0 -132.5 -34t-91 -94t-32.5 -134q0 -75 32.5 -134.5t91.5 -92.5t132 -33q72 0 131 33t92 92.5t33 134.5zM834 403q0 78 -37.5 144t-102.5 103.5t-143 37.5q-77 0 -142.5 -37.5t-103 -103t-37.5 -144.5
q0 -119 81.5 -201.5t201.5 -82.5q59 0 110 21t90.5 60.5t61 91.5t21.5 111z" />
    <glyph glyph-name="nine" unicode="9" horiz-adv-x="1079" 
d="M975 784q0 -179 -107 -366l-389 -686h-155l368 633q-74 -39 -178 -39q-183 0 -296.5 125.5t-113.5 320.5q0 97 29.5 182t87.5 149.5t138.5 98t179.5 33.5q131 0 230.5 -56t152.5 -159t53 -236zM827 780q0 100 -35 174.5t-99.5 115t-151.5 40.5q-129 0 -209 -91t-80 -239
q0 -91 33.5 -167t99 -120t156.5 -44q87 0 151.5 41.5t99.5 116t35 173.5z" />
    <glyph glyph-name="colon" unicode=":" horiz-adv-x="612" 
d="M451 707q0 -48 -34.5 -82.5t-82.5 -34.5q-47 0 -82 35t-35 82q0 48 35 82t82 34q48 0 82.5 -33.5t34.5 -82.5zM451 111q0 -48 -34.5 -82.5t-82.5 -34.5q-47 0 -82 35t-35 82q0 48 35 82t82 34q48 0 82.5 -33.5t34.5 -82.5z" />
    <glyph glyph-name="semicolon" unicode=";" horiz-adv-x="608" 
d="M451 707q0 -48 -34.5 -82.5t-82.5 -34.5q-47 0 -82 35t-35 82q0 48 35 82t82 34q48 0 82.5 -33.5t34.5 -82.5zM424 -133l-180 -162v475h180v-313z" />
    <glyph glyph-name="less" unicode="&#x3c;" horiz-adv-x="2103" 
d="M1870 430l-817 -817l-817 817v193l745 -748v1616h143v-1616l746 748v-193z" />
    <glyph glyph-name="equal" unicode="=" horiz-adv-x="1069" 
d="M963 655h-857v138h857v-138zM963 309h-857v135h857v-135z" />
    <glyph glyph-name="greater" unicode="&#x3e;" horiz-adv-x="2103" 
d="M1870 481l-746 748v-1616h-143v1616l-745 -748v193l817 817l817 -817v-193z" />
    <glyph glyph-name="question" unicode="?" horiz-adv-x="1018" 
d="M924 1098q0 -66 -24 -124.5t-69 -123.5l-167 -242q-37 -55 -37 -119v-79h-148v82q0 58 16 102t48 90l166 240q32 47 49.5 86.5t17.5 87.5q0 66 -29.5 121.5t-83 87.5t-122.5 32q-106 0 -172 -71.5t-66 -171.5h-147q0 78 29 146.5t81 119.5t122.5 79.5t152.5 28.5
t151.5 -27t120.5 -75.5t81 -117t30 -152.5zM653 96q0 -44 -29 -73t-73 -29t-73 29t-29 73q0 45 29 74t73 29q21 0 40.5 -8t32.5 -21t21 -33.5t8 -40.5z" />
    <glyph glyph-name="at" unicode="@" horiz-adv-x="1460" 
d="M1313 -2l-142 2v113q-50 -65 -115.5 -96t-158.5 -31q-86 0 -159 33t-120 92q-51 64 -70.5 148t-19.5 228q0 97 8.5 164.5t27 119t48.5 91.5q46 61 120.5 94t162.5 33q170 0 274 -129v160q0 82 -18.5 136.5t-60.5 96.5q-82 82 -228 82h-266q-142 0 -223 -82
q-32 -30 -49.5 -62t-25 -72.5t-7.5 -98.5v-690q0 -69 9.5 -109t35 -72.5t72.5 -66.5l-101 -100q-94 69 -127 139.5t-33 206.5v688q0 212 115 330q113 114 316 114h303q100 0 179 -28.5t136 -85.5q117 -117 117 -330v-1018zM1169 487q0 108 -18.5 190.5t-72.5 133.5t-156 51
t-156.5 -51t-73 -133.5t-18.5 -190.5t18.5 -190t73 -133t156.5 -51t156.5 51t72.5 133t18 190z" />
    <glyph glyph-name="A" unicode="A" horiz-adv-x="1251" 
d="M1227 0h-166l-117 330h-637l-117 -330h-165l536 1458h131zM899 465l-270 770l-275 -770h545z" />
    <glyph glyph-name="B" unicode="B" horiz-adv-x="1368" 
d="M1212 403q0 -131 -54 -221t-152 -136t-228 -46h-567v1458h549q94 0 175.5 -27t136.5 -76.5t86.5 -122.5t31.5 -163q0 -76 -28 -140.5t-77 -110.5t-110 -68q71 -26 124 -75t83 -119t30 -153zM1034 1067q0 126 -78.5 189t-207.5 63h-381v-506h381q128 0 207 64.5t79 189.5z
M1057 408q0 82 -35.5 141.5t-102 92t-155.5 32.5h-397v-535h397q135 0 214 73t79 196z" />
    <glyph glyph-name="C" unicode="C" horiz-adv-x="1202" 
d="M1075 166q-92 -89 -187 -133.5t-222 -44.5q-222 0 -373 151q-53 54 -79.5 106.5t-39.5 122.5t-15.5 143.5t-2.5 217.5q0 187 6.5 279.5t35.5 168.5t95 142q151 151 373 151q127 0 223.5 -45.5t185.5 -132.5l-104 -104q-77 76 -143 109.5t-162 33.5q-74 0 -139 -26.5
t-113 -75.5q-45 -45 -67.5 -103.5t-29 -144t-6.5 -252.5q0 -238 18 -334t85 -166q99 -102 252 -102q66 0 117.5 16.5t92.5 45.5t95 81z" />
    <glyph glyph-name="D" unicode="D" horiz-adv-x="1378" 
d="M1223 745v-61q0 -119 -8.5 -213.5t-40 -184t-95.5 -151.5q-66 -66 -161 -100.5t-207 -34.5h-500v1458h500q233 0 368 -135q64 -63 95.5 -145.5t40 -170t8.5 -202.5v-60zM1067 745q0 119 -5 197t-25.5 149.5t-65.5 120.5q-104 107 -287 107h-317v-1180h317q183 0 287 107
q64 69 80 190t16 309z" />
    <glyph glyph-name="E" unicode="E" horiz-adv-x="1229" 
d="M1116 0h-905v1458h905v-139h-749v-514h639v-139h-639v-527h749v-139z" />
    <glyph glyph-name="F" unicode="F" horiz-adv-x="1188" 
d="M1116 1319h-749v-537h639v-139h-639v-643h-156v1458h905v-139z" />
    <glyph glyph-name="G" unicode="G" horiz-adv-x="1321" 
d="M1176 532q0 -125 -29.5 -215t-95.5 -161q-74 -80 -173 -124t-212 -44q-222 0 -373 151q-53 54 -79.5 106.5t-39.5 122.5t-15.5 143.5t-2.5 217.5q0 187 6.5 279.5t35.5 168.5t95 142q151 151 373 151q90 0 165 -21.5t138.5 -64.5t132.5 -112l-105 -105q-61 61 -105.5 94
t-100.5 51.5t-125 18.5q-72 0 -137.5 -26.5t-114.5 -77.5q-67 -69 -85 -164.5t-18 -333.5t18 -334t85 -166q99 -102 252 -102q81 0 152.5 32.5t121.5 92.5q80 95 80 266v109h-354v137h510v-232z" />
    <glyph glyph-name="H" unicode="H" horiz-adv-x="1425" 
d="M1214 0h-155v666h-692v-666h-156v1458h156v-653h692v653h155v-1458z" />
    <glyph glyph-name="I" unicode="I" horiz-adv-x="578" 
d="M367 0h-156v1458h156v-1458z" />
    <glyph glyph-name="J" unicode="J" horiz-adv-x="1026" 
d="M836 442q0 -136 -58 -240t-161 -159t-236 -55q-203 0 -334 131l105 104q50 -48 99 -72t130 -24q143 0 221 88t78 248v995h156v-1016z" />
    <glyph glyph-name="K" unicode="K" horiz-adv-x="1331" 
d="M1303 0h-185l-444 776l-307 -368v-408h-156v1458h156v-837l680 837h190l-459 -563z" />
    <glyph glyph-name="L" unicode="L" horiz-adv-x="1174" 
d="M1112 0h-901v1458h156v-1319h745v-139z" />
    <glyph glyph-name="M" unicode="M" horiz-adv-x="1671" 
d="M1460 0h-155v1108l-400 -879h-133l-405 879v-1108h-156v1458h156l475 -1034l463 1034h155v-1458z" />
    <glyph glyph-name="N" unicode="N" horiz-adv-x="1499" 
d="M1288 0h-147l-774 1169v-1169h-156v1458h147l775 -1165v1165h155v-1458z" />
    <glyph glyph-name="O" unicode="O" horiz-adv-x="1331" 
d="M1176 729q0 -187 -6.5 -279.5t-36.5 -170t-95 -140.5q-151 -151 -372 -151q-222 0 -373 151q-53 54 -79.5 106.5t-39.5 122.5t-15.5 143.5t-2.5 217.5q0 187 6.5 279.5t35.5 168.5t95 142q151 151 373 151q221 0 372 -151q65 -63 95 -140.5t36.5 -170t6.5 -279.5z
M1020 729q0 140 -3 208t-13 121.5t-30.5 93.5t-55.5 75q-49 50 -115 77t-137 27q-72 0 -137.5 -26.5t-114.5 -77.5q-67 -69 -85 -164.5t-18 -333.5q0 -237 18 -332.5t85 -165.5q49 -49 114.5 -76.5t137.5 -27.5q71 0 137 27.5t115 76.5q35 37 55.5 77t30.5 93.5t13 121
t3 206.5z" />
    <glyph glyph-name="P" unicode="P" horiz-adv-x="1290" 
d="M1204 1030q0 -99 -32 -177t-92.5 -135.5t-145 -87.5t-180.5 -30h-387v-600h-156v1458h543q99 0 182 -29.5t143.5 -87t92.5 -135t32 -176.5zM1049 1030q0 93 -39 159t-109.5 98t-161.5 32h-372v-580h372q92 0 162 33t109 99t39 159z" />
    <glyph glyph-name="Q" unicode="Q" horiz-adv-x="1329" 
d="M1235 23l-94 -95l-162 162q-134 -102 -313 -102q-222 0 -373 151q-53 54 -79.5 106.5t-39.5 122.5t-15.5 143.5t-2.5 217.5q0 187 6.5 279.5t35.5 168.5t95 142q151 151 373 151q221 0 372 -151q65 -63 95 -140.5t36.5 -170t6.5 -279.5q0 -170 -5 -257t-26.5 -158.5
t-69.5 -131.5zM1020 729q0 140 -3 208t-13 121.5t-30.5 93.5t-55.5 75q-49 50 -115 77t-137 27q-72 0 -137.5 -26.5t-114.5 -77.5q-67 -69 -85 -164.5t-18 -333.5q0 -237 18 -332.5t85 -165.5q49 -49 114.5 -76.5t137.5 -27.5q114 0 206 70l-184 184l94 94l179 -178
q37 59 48 148t11 284z" />
    <glyph glyph-name="R" unicode="R" horiz-adv-x="1343" 
d="M1231 0h-182l-332 647h-350v-647h-156v1458h559q126 0 224.5 -49t153 -141.5t54.5 -214.5q0 -157 -87 -259.5t-230 -131.5zM1047 1051q0 130 -79 199t-212 69h-389v-535h389q84 0 150.5 29.5t103.5 89.5t37 148z" />
    <glyph glyph-name="S" unicode="S" horiz-adv-x="1204" 
d="M1090 401q0 -126 -62.5 -219.5t-176 -143.5t-265.5 -50q-110 0 -197 19.5t-160.5 61.5t-142.5 111l107 107q59 -59 119 -94.5t126.5 -50.5t151.5 -15q161 0 252.5 72t91.5 198q0 57 -18 106t-52 77q-33 30 -71 43.5t-119 25.5l-170 27q-174 28 -268 110q-111 99 -111 273
q0 121 56 215t162.5 145t248.5 51q138 0 238.5 -36.5t195.5 -122.5l-100 -101q-69 63 -149.5 94t-190.5 31q-95 0 -164.5 -33.5t-106 -94t-36.5 -142.5q0 -112 65 -168q69 -60 197 -80l159 -24q96 -14 158.5 -38.5t108.5 -64.5q123 -103 123 -289z" />
    <glyph glyph-name="T" unicode="T" horiz-adv-x="1122" 
d="M1061 1319h-422v-1319h-156v1319h-422v139h1000v-139z" />
    <glyph glyph-name="U" unicode="U" horiz-adv-x="1399" 
d="M1208 481q0 -109 -37.5 -198.5t-105.5 -155.5t-163 -102.5t-204 -36.5q-108 0 -201.5 36t-163.5 102.5t-106.5 156t-36.5 198.5v977h156v-964q0 -111 43.5 -193.5t124 -128t184.5 -45.5q105 0 186 45.5t125 129.5t44 192v964h155v-977z" />
    <glyph glyph-name="V" unicode="V" horiz-adv-x="1118" 
d="M1102 1458l-479 -1458h-127l-480 1458h164l379 -1179l379 1179h164z" />
    <glyph glyph-name="W" unicode="W" horiz-adv-x="1749" 
d="M1716 1458l-373 -1458h-145l-324 1167l-323 -1167h-145l-373 1458h166l284 -1175l322 1175h139l322 -1175l284 1175h166z" />
    <glyph glyph-name="X" unicode="X" horiz-adv-x="1128" 
d="M1098 0h-180l-355 612l-356 -612h-176l446 748l-418 710h181l323 -575l324 575h180l-420 -710z" />
    <glyph glyph-name="Y" unicode="Y" horiz-adv-x="1053" 
d="M1036 1458l-430 -856v-602h-155v602l-435 856h168l344 -698l340 698h168z" />
    <glyph glyph-name="Z" unicode="Z" horiz-adv-x="1139" 
d="M1022 0h-905v147l729 1172h-701v139h877v-131l-735 -1188h735v-139z" />
    <glyph glyph-name="bracketleft" unicode="[" horiz-adv-x="641" 
d="M551 -152h-363v1762h363v-131h-215v-1499h215v-132z" />
    <glyph glyph-name="backslash" unicode="\" horiz-adv-x="727" 
d="M727 -152h-145l-582 1756h145z" />
    <glyph glyph-name="bracketright" unicode="]" horiz-adv-x="641" 
d="M453 -152h-363v127h221v1508h-221v127h363v-1762z" />
    <glyph glyph-name="asciicircum" unicode="^" horiz-adv-x="1100" 
d="M952 846h-151l-250 467l-252 -467h-152l336 624h135z" />
    <glyph glyph-name="underscore" unicode="_" horiz-adv-x="1100" 
d="M1100 -338h-1100v105h1100v-105z" />
    <glyph glyph-name="grave" unicode="`" horiz-adv-x="1024" 
d="M612 1217h-135l-221 313h176z" />
    <glyph glyph-name="a" unicode="a" horiz-adv-x="1077" 
d="M903 0h-147v96q-61 -61 -126 -84.5t-165 -23.5q-102 0 -170 21.5t-115 70.5q-76 76 -76 205q0 135 90.5 212.5t258.5 77.5h303v97q0 113 -60.5 167t-197.5 54q-95 0 -151.5 -25.5t-102.5 -89.5l-101 92q43 56 95 89.5t115.5 47t146.5 13.5q104 0 179 -21.5t125 -64
t74.5 -104t24.5 -146.5v-684zM756 356v109h-283q-225 0 -225 -178q0 -87 56 -129.5t175 -42.5q76 0 129 12.5t97 54.5q51 49 51 174z" />
    <glyph glyph-name="b" unicode="b" horiz-adv-x="1116" 
d="M985 504q0 -139 -26.5 -249.5t-96.5 -178.5q-39 -39 -105 -63.5t-141 -24.5q-59 0 -107 11.5t-94.5 42.5t-82.5 79v-121h-148v1458h148v-567q57 73 125 101t159 28q75 0 141 -23.5t105 -64.5q70 -68 96.5 -178.5t26.5 -249.5zM838 504q0 178 -51 281.5t-201 103.5
q-149 0 -201.5 -104.5t-52.5 -280.5q0 -177 52 -281t202 -104t201 103t51 282z" />
    <glyph glyph-name="c" unicode="c" horiz-adv-x="1004" 
d="M907 137q-76 -82 -151 -115.5t-181 -33.5q-94 0 -176.5 33t-142.5 97.5t-93.5 162t-33.5 223.5q0 166 58 283t159 175t229 58q107 0 181.5 -33.5t150.5 -116.5l-100 -94q-56 62 -107 87.5t-125 25.5q-153 0 -233 -115q-35 -49 -50.5 -112.5t-15.5 -157.5
q0 -93 15.5 -156.5t50.5 -114.5q81 -114 233 -114q72 0 122.5 25.5t109.5 88.5z" />
    <glyph glyph-name="d" unicode="d" horiz-adv-x="1116" 
d="M932 0h-146v121q-38 -51 -84 -80.5t-95 -41t-107 -11.5q-158 0 -246 88q-123 123 -123 428q0 304 123 428q88 88 246 88q92 0 159 -28t125 -101v567h148v-1458zM784 504q0 178 -51 281.5t-201 103.5q-149 0 -201 -105t-52 -280q0 -177 51.5 -281t201.5 -104
q149 0 200.5 103t51.5 282z" />
    <glyph glyph-name="e" unicode="e" 
d="M956 465h-680q0 -166 77.5 -257t219.5 -91q84 0 143 26t122 88l100 -88q-82 -82 -163.5 -118.5t-205.5 -36.5q-133 0 -232.5 55t-153.5 171t-54 290q0 122 28.5 217t82.5 162t131 102t172 35q128 0 222 -59.5t142.5 -170.5t48.5 -258v-67zM809 575q-5 106 -31 168
q-28 69 -92.5 110.5t-142.5 41.5q-79 0 -142.5 -40.5t-93.5 -111.5q-24 -61 -31 -168h533z" />
    <glyph glyph-name="f" unicode="f" horiz-adv-x="643" 
d="M580 889h-215v-889h-148v889h-129v112h129v191q0 118 66 194t190 76h107v-127h-80q-135 0 -135 -147v-187h215v-112z" />
    <glyph glyph-name="g" unicode="g" horiz-adv-x="1112" 
d="M928 -31q0 -94 -28 -172t-83 -137t-134.5 -91t-174.5 -32q-53 0 -99 7.5t-87.5 24t-79 42.5t-76.5 61l96 95q40 -35 72.5 -57t74 -33t95.5 -11q139 0 207.5 85.5t68.5 223.5v158q-38 -49 -83.5 -78.5t-93 -41t-105.5 -11.5q-75 0 -138 24t-106 66q-49 50 -75.5 114
t-37 142t-10.5 164q0 138 26.5 244t96.5 176q88 88 246 88q91 0 157.5 -28t124.5 -103v119h146v-1039zM780 512q0 174 -50 275.5t-200 101.5q-103 0 -158 -51.5t-74 -135.5t-19 -190t19 -190t74 -135.5t158 -51.5q150 0 200 101.5t50 275.5z" />
    <glyph glyph-name="h" unicode="h" horiz-adv-x="1151" 
d="M977 0h-148v623q0 87 -29.5 146.5t-84.5 89.5t-131 30q-117 0 -184.5 -68.5t-67.5 -197.5v-623h-148v1458h148v-561q108 123 282 123q112 0 194 -45.5t125.5 -130t43.5 -197.5v-647z" />
    <glyph glyph-name="i" unicode="i" horiz-adv-x="518" 
d="M360 1386q0 -27 -14 -50t-37 -36.5t-51 -13.5q-27 0 -50 13.5t-36.5 36.5t-13.5 50q0 28 13.5 51t36.5 36.5t50 13.5q20 0 39.5 -8t33.5 -22.5t21.5 -32.5t7.5 -38zM332 0h-148v1008h148v-1008z" />
    <glyph glyph-name="j" unicode="j" horiz-adv-x="518" 
d="M360 1386q0 -27 -14 -50t-37 -36.5t-51 -13.5q-27 0 -50 13.5t-36.5 36.5t-13.5 50q0 28 13.5 51t36.5 36.5t50 13.5q20 0 39.5 -8t33.5 -22.5t21.5 -32.5t7.5 -38zM332 -182q0 -78 -28 -139.5t-85.5 -96.5t-142.5 -35h-107v129h80q74 0 104.5 36t30.5 112v1184h148
v-1190z" />
    <glyph glyph-name="k" unicode="k" horiz-adv-x="1098" 
d="M1030 0h-182l-320 516l-196 -225v-291h-148v1458h148v-975l454 525h185l-342 -385z" />
    <glyph glyph-name="l" unicode="l" horiz-adv-x="608" 
d="M543 0h-107q-127 0 -191.5 74t-64.5 194v1190h148v-1184q0 -77 30 -112t105 -35h80v-127z" />
    <glyph glyph-name="m" unicode="m" horiz-adv-x="1800" 
d="M1626 0h-147v621q0 131 -65.5 199.5t-182.5 68.5q-74 0 -131.5 -30t-89 -86t-31.5 -136v-637h-148v621q0 66 -18 118t-48.5 84t-75.5 49t-105 17q-117 0 -184.5 -69.5t-67.5 -198.5v-621h-148v1008h148v-111q106 123 284 123q106 0 184.5 -42t125.5 -126q118 168 331 168
q162 0 261 -94q108 -106 108 -281v-645z" />
    <glyph glyph-name="n" unicode="n" horiz-adv-x="1151" 
d="M977 0h-148v621q0 66 -18 118t-48.5 84t-75.5 49t-105 17q-116 0 -183 -69.5t-67 -198.5v-621h-148v1008h148v-111q55 62 125 92.5t157 30.5q164 0 258 -94q105 -102 105 -281v-645z" />
    <glyph glyph-name="o" unicode="o" 
d="M954 504q0 -88 -9.5 -156.5t-37 -132t-76.5 -113.5q-114 -114 -288 -114q-173 0 -289 114q-49 50 -76 112t-37 132t-10 158q0 133 26 230.5t97 170.5q115 115 289 115q175 0 288 -115q71 -71 97 -169.5t26 -231.5zM807 504q0 110 -15.5 186t-64.5 125q-74 74 -184 74
q-107 0 -183 -74q-50 -51 -65.5 -128.5t-15.5 -182.5q0 -106 15.5 -183t65.5 -128q74 -74 183 -74q112 0 184 74q50 50 65 125t15 186z" />
    <glyph glyph-name="p" unicode="p" horiz-adv-x="1116" 
d="M985 504q0 -139 -26.5 -249.5t-96.5 -178.5q-39 -39 -105 -63.5t-141 -24.5q-59 0 -107 11.5t-93.5 41t-83.5 78.5v-570h-148v1459h148v-119q58 75 125.5 103t158.5 28q75 0 141 -23.5t105 -64.5q70 -68 96.5 -178.5t26.5 -249.5zM838 504q0 178 -51 281.5t-201 103.5
q-149 0 -201.5 -104.5t-52.5 -280.5q0 -177 52 -281t202 -104t201 103t51 282z" />
    <glyph glyph-name="q" unicode="q" horiz-adv-x="1116" 
d="M932 -451h-148v570q-38 -49 -83.5 -78.5t-93.5 -41t-107 -11.5q-158 0 -246 88q-123 123 -123 428q0 304 123 428q88 88 246 88q92 0 160.5 -28t125.5 -103v119h146v-1459zM784 504q0 178 -51 281.5t-201 103.5q-149 0 -201 -105t-52 -280q0 -177 51.5 -281t201.5 -104
q149 0 200.5 103t51.5 282z" />
    <glyph glyph-name="r" unicode="r" horiz-adv-x="862" 
d="M856 926l-108 -111q-41 41 -79.5 57.5t-95.5 16.5q-72 0 -127 -35.5t-84.5 -96.5t-29.5 -139v-618h-148v1008h148v-123q42 63 118.5 99t163.5 36q147 0 242 -94z" />
    <glyph glyph-name="s" unicode="s" horiz-adv-x="1016" 
d="M911 295q0 -96 -51 -165t-143 -105.5t-215 -36.5q-131 0 -232 34t-182 111l98 98q110 -116 314 -116q126 0 197 45t71 133q0 66 -40.5 103t-127.5 44l-166 15q-301 25 -301 270q0 136 103.5 215.5t267.5 79.5q109 0 203 -27.5t159 -81.5l-96 -96q-105 80 -268 80
q-109 0 -167.5 -44t-58.5 -122q0 -133 177 -147l161 -15q143 -13 220 -76t77 -196z" />
    <glyph glyph-name="t" unicode="t" horiz-adv-x="680" 
d="M571 0h-104q-124 0 -191 76.5t-67 193.5v619h-127v112h127v316h147v-316h215v-112h-215v-615q0 -147 138 -147h77v-127z" />
    <glyph glyph-name="u" unicode="u" horiz-adv-x="1151" 
d="M967 0h-146v113q-52 -61 -126 -93t-158 -32q-167 0 -261 94q-52 52 -77 123t-25 160v643h148v-621q0 -130 65 -199t180 -69q117 0 184.5 69.5t67.5 198.5v621h148v-1008z" />
    <glyph glyph-name="v" unicode="v" horiz-adv-x="915" 
d="M893 1008l-371 -1008h-131l-368 1008h159l275 -809l276 809h160z" />
    <glyph glyph-name="w" unicode="w" horiz-adv-x="1483" 
d="M1460 1008l-317 -1008h-137l-265 782l-262 -782h-137l-319 1008h159l232 -809l264 809h127l266 -809l229 809h160z" />
    <glyph glyph-name="x" unicode="x" horiz-adv-x="979" 
d="M911 0h-178l-241 391l-246 -391h-178l342 514l-328 494h178l232 -373l227 373h178l-328 -494z" />
    <glyph glyph-name="y" unicode="y" horiz-adv-x="915" 
d="M893 1008l-459 -1252q-29 -79 -72 -118q-71 -70 -196 -70h-64v131h45q75 0 108 27t58 98l72 196l-362 988h159l277 -809l274 809h160z" />
    <glyph glyph-name="z" unicode="z" horiz-adv-x="940" 
d="M834 0h-732v127l562 750h-531v131h701v-125l-564 -752h564v-131z" />
    <glyph glyph-name="braceleft" unicode="{" horiz-adv-x="725" 
d="M625 -152h-76q-75 0 -124 14.5t-83 47.5q-35 37 -48 80t-13 123v391q0 84 -37 123q-39 37 -92 37h-54v131h54q54 0 92 36q37 39 37 123v392q0 79 13 123t48 79q62 62 207 62h76v-131h-47q-57 0 -82 -6t-39 -21q-29 -28 -29 -133v-385q0 -81 -32.5 -127.5t-96.5 -77.5
q63 -29 96 -76t33 -129v-385q0 -104 29 -133q14 -14 41.5 -20t79.5 -6h47v-132z" />
    <glyph glyph-name="bar" unicode="|" horiz-adv-x="668" 
d="M408 -152h-148v1762h148v-1762z" />
    <glyph glyph-name="braceright" unicode="}" horiz-adv-x="725" 
d="M625 664h-52q-53 0 -92 -37q-37 -39 -37 -123v-391q0 -80 -13.5 -124.5t-47.5 -78.5q-33 -33 -81.5 -47.5t-125.5 -14.5h-78v132h49q52 0 78.5 6t40.5 20q31 31 31 133v385q0 82 33 129t96 76q-41 19 -69.5 44.5t-44 66t-15.5 94.5v385q0 103 -31 133q-14 15 -38 21
t-81 6h-49v131h78q145 0 207 -62q34 -33 47.5 -78t13.5 -124v-392q0 -84 37 -123q38 -36 92 -36h52v-131z" />
    <glyph glyph-name="asciitilde" unicode="~" horiz-adv-x="1104" 
d="M1004 569q-57 -57 -99.5 -87t-80.5 -41t-85 -11q-49 0 -95.5 15.5t-121.5 48.5q-107 49 -160 49q-45 0 -80 -17.5t-92 -74.5l-90 92q57 57 99.5 87t80 41t85.5 11q50 0 97 -15.5t118 -48.5q59 -26 91 -37.5t68 -11.5q46 0 80.5 18t91.5 75z" />
    <glyph glyph-name="Adieresis" unicode="&#xc4;" horiz-adv-x="1251" 
d="M1227 0h-166l-117 330h-637l-117 -330h-165l536 1458h131zM899 465l-270 770l-275 -770h545zM927 1704q0 -38 -26 -65t-66 -27q-38 0 -65 27t-27 65q0 39 27.5 66.5t64.5 27.5q39 0 65.5 -27.5t26.5 -66.5zM493 1704q0 -38 -26 -65t-66 -27q-38 0 -65 27t-27 65
q0 39 27.5 66.5t64.5 27.5q39 0 65.5 -27.5t26.5 -66.5z" />
    <glyph glyph-name="Aring" unicode="&#xc5;" horiz-adv-x="1251" 
d="M1227 0h-166l-117 330h-637l-117 -330h-165l536 1458h131zM899 465l-270 770l-275 -770h545zM860 1776q0 -65 -33 -121.5t-88 -89.5t-121 -33t-121 33t-88 89.5t-33 121.5q0 100 71 171t171 71q65 0 121 -32t88.5 -87.5t32.5 -122.5zM759 1776q0 58 -41.5 98.5
t-99.5 40.5t-99.5 -40.5t-41.5 -98.5q0 -57 42 -99t99 -42t99 42t42 99z" />
    <glyph glyph-name="Ccedilla" unicode="&#xc7;" horiz-adv-x="1282" 
d="M1075 166q-92 -89 -187 -133.5t-222 -44.5q-222 0 -373 151q-53 54 -79.5 106.5t-39.5 122.5t-15.5 143.5t-2.5 217.5q0 187 6.5 279.5t35.5 168.5t95 142q151 151 373 151q127 0 223.5 -45.5t185.5 -132.5l-104 -104q-77 76 -143 109.5t-162 33.5q-74 0 -139 -26.5
t-113 -75.5q-45 -45 -67.5 -103.5t-29 -144t-6.5 -252.5q0 -238 18 -334t85 -166q99 -102 252 -102q66 0 117.5 16.5t92.5 45.5t95 81zM758 -137l-121 -305h-162l146 305h137z" />
    <glyph glyph-name="Eacute" unicode="&#xc9;" horiz-adv-x="1229" 
d="M1116 0h-905v1458h905v-139h-749v-514h639v-139h-639v-527h749v-139zM897 1913l-221 -313h-135l180 313h176z" />
    <glyph glyph-name="Ntilde" unicode="&#xd1;" horiz-adv-x="1499" 
d="M1288 0h-147l-774 1169v-1169h-156v1458h147l775 -1165v1165h155v-1458zM1072 1733q-105 -105 -195 -105q-38 0 -69 11t-76 36q-73 43 -115 43q-29 0 -54 -11.5t-67 -53.5l-76 73q63 64 106.5 84.5t88.5 20.5q43 0 74.5 -12t70.5 -37q65 -41 115 -41q55 0 121 65z" />
    <glyph glyph-name="Odieresis" unicode="&#xd6;" horiz-adv-x="1331" 
d="M1176 729q0 -187 -6.5 -279.5t-36.5 -170t-95 -140.5q-151 -151 -372 -151q-222 0 -373 151q-53 54 -79.5 106.5t-39.5 122.5t-15.5 143.5t-2.5 217.5q0 187 6.5 279.5t35.5 168.5t95 142q151 151 373 151q221 0 372 -151q65 -63 95 -140.5t36.5 -170t6.5 -279.5z
M1020 729q0 140 -3 208t-13 121.5t-30.5 93.5t-55.5 75q-49 50 -115 77t-137 27q-72 0 -137.5 -26.5t-114.5 -77.5q-67 -69 -85 -164.5t-18 -333.5q0 -237 18 -332.5t85 -165.5q49 -49 114.5 -76.5t137.5 -27.5q71 0 137 27.5t115 76.5q35 37 55.5 77t30.5 93.5t13 121
t3 206.5zM975 1704q0 -38 -26 -65t-66 -27q-38 0 -65 27t-27 65q0 39 27.5 66.5t64.5 27.5q39 0 65.5 -27.5t26.5 -66.5zM541 1704q0 -38 -26 -65t-66 -27q-38 0 -65 27t-27 65q0 39 27.5 66.5t64.5 27.5q39 0 65.5 -27.5t26.5 -66.5z" />
    <glyph glyph-name="Udieresis" unicode="&#xdc;" horiz-adv-x="1397" 
d="M1208 481q0 -109 -37.5 -198.5t-105.5 -155.5t-163 -102.5t-204 -36.5q-108 0 -201.5 36t-163.5 102.5t-106.5 156t-36.5 198.5v977h156v-964q0 -111 43.5 -193.5t124 -128t184.5 -45.5q105 0 186 45.5t125 129.5t44 192v964h155v-977zM1007 1704q0 -38 -26 -65t-66 -27
q-38 0 -65 27t-27 65q0 39 27.5 66.5t64.5 27.5q39 0 65.5 -27.5t26.5 -66.5zM573 1704q0 -38 -26 -65t-66 -27q-38 0 -65 27t-27 65q0 39 27.5 66.5t64.5 27.5q39 0 65.5 -27.5t26.5 -66.5z" />
    <glyph glyph-name="aacute" unicode="&#xe1;" horiz-adv-x="1077" 
d="M903 0h-147v96q-61 -61 -126 -84.5t-165 -23.5q-102 0 -170 21.5t-115 70.5q-76 76 -76 205q0 135 90.5 212.5t258.5 77.5h303v97q0 113 -60.5 167t-197.5 54q-95 0 -151.5 -25.5t-102.5 -89.5l-101 92q43 56 95 89.5t115.5 47t146.5 13.5q104 0 179 -21.5t125 -64
t74.5 -104t24.5 -146.5v-684zM756 356v109h-283q-225 0 -225 -178q0 -87 56 -129.5t175 -42.5q76 0 129 12.5t97 54.5q51 49 51 174zM772 1530l-221 -313h-135l180 313h176z" />
    <glyph glyph-name="agrave" unicode="&#xe0;" horiz-adv-x="1077" 
d="M903 0h-147v96q-61 -61 -126 -84.5t-165 -23.5q-102 0 -170 21.5t-115 70.5q-76 76 -76 205q0 135 90.5 212.5t258.5 77.5h303v97q0 113 -60.5 167t-197.5 54q-95 0 -151.5 -25.5t-102.5 -89.5l-101 92q43 56 95 89.5t115.5 47t146.5 13.5q104 0 179 -21.5t125 -64
t74.5 -104t24.5 -146.5v-684zM756 356v109h-283q-225 0 -225 -178q0 -87 56 -129.5t175 -42.5q76 0 129 12.5t97 54.5q51 49 51 174zM616 1217h-135l-221 313h176z" />
    <glyph glyph-name="acircumflex" unicode="&#xe2;" horiz-adv-x="1077" 
d="M903 0h-147v96q-61 -61 -126 -84.5t-165 -23.5q-102 0 -170 21.5t-115 70.5q-76 76 -76 205q0 135 90.5 212.5t258.5 77.5h303v97q0 113 -60.5 167t-197.5 54q-95 0 -151.5 -25.5t-102.5 -89.5l-101 92q43 56 95 89.5t115.5 47t146.5 13.5q104 0 179 -21.5t125 -64
t74.5 -104t24.5 -146.5v-684zM756 356v109h-283q-225 0 -225 -178q0 -87 56 -129.5t175 -42.5q76 0 129 12.5t97 54.5q51 49 51 174zM842 1217h-142l-184 213l-184 -213h-142l256 313h140z" />
    <glyph glyph-name="adieresis" unicode="&#xe4;" horiz-adv-x="1077" 
d="M903 0h-147v96q-61 -61 -126 -84.5t-165 -23.5q-102 0 -170 21.5t-115 70.5q-76 76 -76 205q0 135 90.5 212.5t258.5 77.5h303v97q0 113 -60.5 167t-197.5 54q-95 0 -151.5 -25.5t-102.5 -89.5l-101 92q43 56 95 89.5t115.5 47t146.5 13.5q104 0 179 -21.5t125 -64
t74.5 -104t24.5 -146.5v-684zM756 356v109h-283q-225 0 -225 -178q0 -87 56 -129.5t175 -42.5q76 0 129 12.5t97 54.5q51 49 51 174zM825 1321q0 -38 -26 -65t-66 -27q-38 0 -65 27t-27 65q0 39 27.5 66.5t64.5 27.5q39 0 65.5 -27.5t26.5 -66.5zM391 1321q0 -38 -26 -65
t-66 -27q-38 0 -65 27t-27 65q0 39 27.5 66.5t64.5 27.5q39 0 65.5 -27.5t26.5 -66.5z" />
    <glyph glyph-name="atilde" unicode="&#xe3;" horiz-adv-x="1077" 
d="M903 0h-147v96q-61 -61 -126 -84.5t-165 -23.5q-102 0 -170 21.5t-115 70.5q-76 76 -76 205q0 135 90.5 212.5t258.5 77.5h303v97q0 113 -60.5 167t-197.5 54q-95 0 -151.5 -25.5t-102.5 -89.5l-101 92q43 56 95 89.5t115.5 47t146.5 13.5q104 0 179 -21.5t125 -64
t74.5 -104t24.5 -146.5v-684zM756 356v109h-283q-225 0 -225 -178q0 -87 56 -129.5t175 -42.5q76 0 129 12.5t97 54.5q51 49 51 174zM838 1350q-105 -105 -195 -105q-38 0 -69 11t-76 36q-73 43 -115 43q-29 0 -54 -11.5t-67 -53.5l-76 73q63 64 106.5 84.5t88.5 20.5
q43 0 74.5 -12t70.5 -37q65 -41 115 -41q55 0 121 65z" />
    <glyph glyph-name="aring" unicode="&#xe5;" horiz-adv-x="1077" 
d="M903 0h-147v96q-61 -61 -126 -84.5t-165 -23.5q-102 0 -170 21.5t-115 70.5q-76 76 -76 205q0 135 90.5 212.5t258.5 77.5h303v97q0 113 -60.5 167t-197.5 54q-95 0 -151.5 -25.5t-102.5 -89.5l-101 92q43 56 95 89.5t115.5 47t146.5 13.5q104 0 179 -21.5t125 -64
t74.5 -104t24.5 -146.5v-684zM756 356v109h-283q-225 0 -225 -178q0 -87 56 -129.5t175 -42.5q76 0 129 12.5t97 54.5q51 49 51 174zM758 1407q0 -65 -33 -121.5t-88 -89.5t-121 -33t-121 33t-88 89.5t-33 121.5q0 100 71 171t171 71q65 0 121 -32t88.5 -87.5t32.5 -122.5z
M657 1407q0 58 -41.5 98.5t-99.5 40.5t-99.5 -40.5t-41.5 -98.5q0 -57 42 -99t99 -42t99 42t42 99z" />
    <glyph glyph-name="ccedilla" unicode="&#xe7;" horiz-adv-x="1012" 
d="M907 137q-76 -82 -151 -115.5t-181 -33.5q-94 0 -176.5 33t-142.5 97.5t-93.5 162t-33.5 223.5q0 166 58 283t159 175t229 58q107 0 181.5 -33.5t150.5 -116.5l-100 -94q-56 62 -107 87.5t-125 25.5q-153 0 -233 -115q-35 -49 -50.5 -112.5t-15.5 -157.5
q0 -93 15.5 -156.5t50.5 -114.5q81 -114 233 -114q72 0 122.5 25.5t109.5 88.5zM641 -137l-121 -305h-162l146 305h137z" />
    <glyph glyph-name="eacute" unicode="&#xe9;" 
d="M956 465h-680q0 -166 77.5 -257t219.5 -91q84 0 143 26t122 88l100 -88q-82 -82 -163.5 -118.5t-205.5 -36.5q-133 0 -232.5 55t-153.5 171t-54 290q0 122 28.5 217t82.5 162t131 102t172 35q128 0 222 -59.5t142.5 -170.5t48.5 -258v-67zM809 575q-5 106 -31 168
q-28 69 -92.5 110.5t-142.5 41.5q-79 0 -142.5 -40.5t-93.5 -111.5q-24 -61 -31 -168h533zM805 1530l-221 -313h-135l180 313h176z" />
    <glyph glyph-name="egrave" unicode="&#xe8;" 
d="M956 465h-680q0 -166 77.5 -257t219.5 -91q84 0 143 26t122 88l100 -88q-82 -82 -163.5 -118.5t-205.5 -36.5q-133 0 -232.5 55t-153.5 171t-54 290q0 122 28.5 217t82.5 162t131 102t172 35q128 0 222 -59.5t142.5 -170.5t48.5 -258v-67zM809 575q-5 106 -31 168
q-28 69 -92.5 110.5t-142.5 41.5q-79 0 -142.5 -40.5t-93.5 -111.5q-24 -61 -31 -168h533zM649 1217h-135l-221 313h176z" />
    <glyph glyph-name="ecircumflex" unicode="&#xea;" 
d="M956 465h-680q0 -166 77.5 -257t219.5 -91q84 0 143 26t122 88l100 -88q-82 -82 -163.5 -118.5t-205.5 -36.5q-133 0 -232.5 55t-153.5 171t-54 290q0 122 28.5 217t82.5 162t131 102t172 35q128 0 222 -59.5t142.5 -170.5t48.5 -258v-67zM809 575q-5 106 -31 168
q-28 69 -92.5 110.5t-142.5 41.5q-79 0 -142.5 -40.5t-93.5 -111.5q-24 -61 -31 -168h533zM875 1217h-142l-184 213l-184 -213h-142l256 313h140z" />
    <glyph glyph-name="edieresis" unicode="&#xeb;" 
d="M956 465h-680q0 -166 77.5 -257t219.5 -91q84 0 143 26t122 88l100 -88q-82 -82 -163.5 -118.5t-205.5 -36.5q-133 0 -232.5 55t-153.5 171t-54 290q0 122 28.5 217t82.5 162t131 102t172 35q128 0 222 -59.5t142.5 -170.5t48.5 -258v-67zM809 575q-5 106 -31 168
q-28 69 -92.5 110.5t-142.5 41.5q-79 0 -142.5 -40.5t-93.5 -111.5q-24 -61 -31 -168h533zM858 1321q0 -38 -26 -65t-66 -27q-38 0 -65 27t-27 65q0 39 27.5 66.5t64.5 27.5q39 0 65.5 -27.5t26.5 -66.5zM424 1321q0 -38 -26 -65t-66 -27q-38 0 -65 27t-27 65
q0 39 27.5 66.5t64.5 27.5q39 0 65.5 -27.5t26.5 -66.5z" />
    <glyph glyph-name="iacute" unicode="&#xed;" horiz-adv-x="518" 
d="M332 0h-148v1008h148v-1008zM492 1530l-221 -313h-135l180 313h176z" />
    <glyph glyph-name="igrave" unicode="&#xec;" horiz-adv-x="518" 
d="M332 0h-148v1008h148v-1008zM393 1217h-135l-221 313h176z" />
    <glyph glyph-name="icircumflex" unicode="&#xee;" horiz-adv-x="518" 
d="M332 0h-148v1008h148v-1008zM584 1217h-142l-184 213l-184 -213h-142l256 313h140z" />
    <glyph glyph-name="idieresis" unicode="&#xef;" horiz-adv-x="518" 
d="M332 0h-148v1008h148v-1008zM563 1321q0 -38 -26 -65t-66 -27q-38 0 -65 27t-27 65q0 39 27.5 66.5t64.5 27.5q39 0 65.5 -27.5t26.5 -66.5zM129 1321q0 -38 -26 -65t-66 -27q-38 0 -65 27t-27 65q0 39 27.5 66.5t64.5 27.5q39 0 65.5 -27.5t26.5 -66.5z" />
    <glyph glyph-name="ntilde" unicode="&#xf1;" horiz-adv-x="1153" 
d="M977 0h-148v621q0 66 -18 118t-48.5 84t-75.5 49t-105 17q-116 0 -183 -69.5t-67 -198.5v-621h-148v1008h148v-111q55 62 125 92.5t157 30.5q164 0 258 -94q105 -102 105 -281v-645zM906 1350q-105 -105 -195 -105q-38 0 -69 11t-76 36q-73 43 -115 43q-29 0 -54 -11.5
t-67 -53.5l-76 73q63 64 106.5 84.5t88.5 20.5q43 0 74.5 -12t70.5 -37q65 -41 115 -41q55 0 121 65z" />
    <glyph glyph-name="oacute" unicode="&#xf3;" 
d="M954 504q0 -88 -9.5 -156.5t-37 -132t-76.5 -113.5q-114 -114 -288 -114q-173 0 -289 114q-49 50 -76 112t-37 132t-10 158q0 133 26 230.5t97 170.5q115 115 289 115q175 0 288 -115q71 -71 97 -169.5t26 -231.5zM807 504q0 110 -15.5 186t-64.5 125q-74 74 -184 74
q-107 0 -183 -74q-50 -51 -65.5 -128.5t-15.5 -182.5q0 -106 15.5 -183t65.5 -128q74 -74 183 -74q112 0 184 74q50 50 65 125t15 186zM799 1530l-221 -313h-135l180 313h176z" />
    <glyph glyph-name="ograve" unicode="&#xf2;" 
d="M954 504q0 -88 -9.5 -156.5t-37 -132t-76.5 -113.5q-114 -114 -288 -114q-173 0 -289 114q-49 50 -76 112t-37 132t-10 158q0 133 26 230.5t97 170.5q115 115 289 115q175 0 288 -115q71 -71 97 -169.5t26 -231.5zM807 504q0 110 -15.5 186t-64.5 125q-74 74 -184 74
q-107 0 -183 -74q-50 -51 -65.5 -128.5t-15.5 -182.5q0 -106 15.5 -183t65.5 -128q74 -74 183 -74q112 0 184 74q50 50 65 125t15 186zM622 1217h-135l-221 313h176z" />
    <glyph glyph-name="ocircumflex" unicode="&#xf4;" 
d="M954 504q0 -88 -9.5 -156.5t-37 -132t-76.5 -113.5q-114 -114 -288 -114q-173 0 -289 114q-49 50 -76 112t-37 132t-10 158q0 133 26 230.5t97 170.5q115 115 289 115q175 0 288 -115q71 -71 97 -169.5t26 -231.5zM807 504q0 110 -15.5 186t-64.5 125q-74 74 -184 74
q-107 0 -183 -74q-50 -51 -65.5 -128.5t-15.5 -182.5q0 -106 15.5 -183t65.5 -128q74 -74 183 -74q112 0 184 74q50 50 65 125t15 186zM869 1217h-142l-184 213l-184 -213h-142l256 313h140z" />
    <glyph glyph-name="odieresis" unicode="&#xf6;" 
d="M954 504q0 -88 -9.5 -156.5t-37 -132t-76.5 -113.5q-114 -114 -288 -114q-173 0 -289 114q-49 50 -76 112t-37 132t-10 158q0 133 26 230.5t97 170.5q115 115 289 115q175 0 288 -115q71 -71 97 -169.5t26 -231.5zM807 504q0 110 -15.5 186t-64.5 125q-74 74 -184 74
q-107 0 -183 -74q-50 -51 -65.5 -128.5t-15.5 -182.5q0 -106 15.5 -183t65.5 -128q74 -74 183 -74q112 0 184 74q50 50 65 125t15 186zM852 1321q0 -38 -26 -65t-66 -27q-38 0 -65 27t-27 65q0 39 27.5 66.5t64.5 27.5q39 0 65.5 -27.5t26.5 -66.5zM418 1321q0 -38 -26 -65
t-66 -27q-38 0 -65 27t-27 65q0 39 27.5 66.5t64.5 27.5q39 0 65.5 -27.5t26.5 -66.5z" />
    <glyph glyph-name="otilde" unicode="&#xf5;" 
d="M954 504q0 -88 -9.5 -156.5t-37 -132t-76.5 -113.5q-114 -114 -288 -114q-173 0 -289 114q-49 50 -76 112t-37 132t-10 158q0 133 26 230.5t97 170.5q115 115 289 115q175 0 288 -115q71 -71 97 -169.5t26 -231.5zM807 504q0 110 -15.5 186t-64.5 125q-74 74 -184 74
q-107 0 -183 -74q-50 -51 -65.5 -128.5t-15.5 -182.5q0 -106 15.5 -183t65.5 -128q74 -74 183 -74q112 0 184 74q50 50 65 125t15 186zM865 1350q-105 -105 -195 -105q-38 0 -69 11t-76 36q-73 43 -115 43q-29 0 -54 -11.5t-67 -53.5l-76 73q63 64 106.5 84.5t88.5 20.5
q43 0 74.5 -12t70.5 -37q65 -41 115 -41q55 0 121 65z" />
    <glyph glyph-name="uacute" unicode="&#xfa;" horiz-adv-x="1151" 
d="M967 0h-146v113q-52 -61 -126 -93t-158 -32q-167 0 -261 94q-52 52 -77 123t-25 160v643h148v-621q0 -130 65 -199t180 -69q117 0 184.5 69.5t67.5 198.5v621h148v-1008zM825 1530l-221 -313h-135l180 313h176z" />
    <glyph glyph-name="ugrave" unicode="&#xf9;" horiz-adv-x="1151" 
d="M967 0h-146v113q-52 -61 -126 -93t-158 -32q-167 0 -261 94q-52 52 -77 123t-25 160v643h148v-621q0 -130 65 -199t180 -69q117 0 184.5 69.5t67.5 198.5v621h148v-1008zM669 1217h-135l-221 313h176z" />
    <glyph glyph-name="ucircumflex" unicode="&#xfb;" horiz-adv-x="1151" 
d="M967 0h-146v113q-52 -61 -126 -93t-158 -32q-167 0 -261 94q-52 52 -77 123t-25 160v643h148v-621q0 -130 65 -199t180 -69q117 0 184.5 69.5t67.5 198.5v621h148v-1008zM895 1217h-142l-184 213l-184 -213h-142l256 313h140z" />
    <glyph glyph-name="udieresis" unicode="&#xfc;" horiz-adv-x="1151" 
d="M967 0h-146v113q-52 -61 -126 -93t-158 -32q-167 0 -261 94q-52 52 -77 123t-25 160v643h148v-621q0 -130 65 -199t180 -69q117 0 184.5 69.5t67.5 198.5v621h148v-1008zM878 1321q0 -38 -26 -65t-66 -27q-38 0 -65 27t-27 65q0 39 27.5 66.5t64.5 27.5q39 0 65.5 -27.5
t26.5 -66.5zM444 1321q0 -38 -26 -65t-66 -27q-38 0 -65 27t-27 65q0 39 27.5 66.5t64.5 27.5q39 0 65.5 -27.5t26.5 -66.5z" />
    <glyph glyph-name="dagger" unicode="&#x2020;" horiz-adv-x="1239" 
d="M1087 911h-397v-911h-147v911h-391v131h391v416h147v-416h397v-131z" />
    <glyph glyph-name="degree" unicode="&#xb0;" horiz-adv-x="948" 
d="M811 1141q0 -92 -44.5 -169.5t-122 -122t-169.5 -44.5q-139 0 -238.5 98.5t-99.5 237.5q0 91 45.5 168.5t124 122.5t168.5 45q71 0 132.5 -26t106 -71t71 -107t26.5 -132zM686 1141q0 60 -27.5 109.5t-76.5 78.5t-109 29q-61 0 -108.5 -28.5t-75 -78.5t-27.5 -110
q0 -92 61.5 -154.5t151.5 -62.5q89 0 150 62t61 155z" />
    <glyph glyph-name="cent" unicode="&#xa2;" horiz-adv-x="1020" 
d="M918 387q-70 -76 -137.5 -110.5t-159.5 -40.5v-236h-121v240q-84 12 -152.5 51.5t-118.5 107t-75 155.5t-25 196q0 109 25.5 197.5t74.5 155t116.5 106t154.5 51.5v198h121v-194q89 -6 158 -41t139 -111l-101 -94q-50 58 -96 82.5t-109 29.5v-761q63 5 108.5 30t96.5 82z
M508 373v753q-101 -18 -164 -106q-35 -50 -51.5 -112.5t-16.5 -157.5q0 -176 68 -271q63 -88 164 -106z" />
    <glyph glyph-name="sterling" unicode="&#xa3;" horiz-adv-x="1122" 
d="M1016 0h-791v676h-129v110h129v230q0 137 58.5 240.5t162.5 158.5t236 55q105 0 187 -32.5t147 -98.5l-107 -104q-46 47 -96 71.5t-131 24.5q-143 0 -221 -87t-78 -249v-209h299v-110h-299v-537h633v-139z" />
    <glyph glyph-name="section" unicode="&#xa7;" horiz-adv-x="1141" 
d="M963 520q0 -117 -61.5 -204t-151.5 -132q90 -33 144 -109.5t54 -185.5q0 -104 -49.5 -184.5t-135.5 -124t-192 -43.5q-104 0 -189 37.5t-138.5 112t-59.5 180.5h150q9 -94 71 -144.5t166 -50.5q105 0 166.5 57t61.5 158q0 73 -48.5 129.5t-132.5 79.5l-159 45
q-89 25 -152 78t-96 128.5t-33 168.5q0 119 61.5 206t153.5 130q-94 44 -142 110t-48 173q0 97 46.5 173.5t130.5 119t191 42.5q108 0 190.5 -39t130 -110.5t52.5 -171.5h-147q-15 190 -226 190q-105 0 -163 -52t-58 -150q0 -77 45 -125t127 -72l160 -45q87 -25 151 -78
t97 -128.5t33 -168.5zM813 518q0 123 -65 189q-75 73 -177 73q-109 0 -176 -73q-36 -41 -51.5 -84t-15.5 -105q0 -114 67 -188q68 -74 176 -74q109 0 177 74q65 73 65 188z" />
    <glyph glyph-name="bullet" unicode="&#x2022;" horiz-adv-x="1090" 
d="M879 684q0 -69 -26 -129.5t-71.5 -106t-108 -72t-128.5 -26.5q-138 0 -236 98t-98 236q0 90 45 167.5t122.5 122t166.5 44.5q69 0 130.5 -26t106.5 -71t71 -106.5t26 -130.5z" />
    <glyph glyph-name="paragraph" unicode="&#xb6;" horiz-adv-x="1235" 
d="M1024 -451h-147v1770h-240v-1770h-148v1119q-89 0 -163 31.5t-127.5 87.5t-83 127t-29.5 147q0 110 53 200.5t155 143.5t236 53h494v-1909z" />
    <glyph glyph-name="germandbls" unicode="&#xdf;" horiz-adv-x="1139" 
d="M991 289q0 -143 -80 -215q-42 -39 -91.5 -56.5t-119.5 -17.5h-110v127h82q43 0 67.5 8.5t53.5 32.5q51 43 51 137v346q0 84 -43 127t-121 43h-90v123h74q80 0 130 51t50 135q0 44 -17.5 86t-46.5 68q-62 59 -192 59q-90 0 -146 -34t-82 -96t-26 -146v-1067h-150v1073
q0 125 50 215.5t144 137.5t218 47q86 0 155 -19.5t124.5 -62t85.5 -107.5t30 -151q0 -161 -129 -244q73 -38 101 -91.5t28 -154.5v-354z" />
    <glyph glyph-name="registered" unicode="&#xae;" horiz-adv-x="1804" 
d="M1642 729q0 -149 -58 -286t-159 -238t-238 -159t-286 -58q-148 0 -285 57.5t-238.5 159t-159.5 238.5t-58 286t58 286t159.5 238.5t238.5 159t285 57.5q149 0 286 -58t238 -159t159 -238t58 -286zM1526 729q0 130 -49 245.5t-134 201.5t-200.5 136t-241.5 50t-240 -49
t-199 -135.5t-134 -204.5t-49 -244t48.5 -242.5t135.5 -205t199.5 -137t238.5 -48.5t240.5 49t201 137.5t135 202.5t48.5 244zM1212 324h-131l-186 331h-123v-331h-113v813h277q69 0 128 -32t93.5 -88.5t34.5 -123.5q0 -87 -47 -143t-127 -80zM1077 893q0 62 -43 102.5
t-110 40.5h-152v-284h152q67 0 110 40t43 101z" />
    <glyph glyph-name="copyright" unicode="&#xa9;" horiz-adv-x="1804" 
d="M1642 729q0 -149 -58 -286t-159 -238t-238 -159t-286 -58q-148 0 -285 57.5t-238.5 159t-159.5 238.5t-58 286t58 286t159.5 238.5t238.5 159t285 57.5q149 0 286 -58t238 -159t159 -238t58 -286zM1524 729q0 129 -49 244.5t-133.5 201.5t-199.5 135.5t-241 49.5
t-240.5 -49.5t-198.5 -136t-132.5 -202.5t-48.5 -243q0 -171 83.5 -316t225.5 -230t311 -85q126 0 239.5 49t199.5 135.5t135 202t49 244.5zM1180 420q-63 -57 -125 -82t-144 -25q-86 0 -155 31t-116 88t-70 131.5t-23 165.5q0 121 41.5 215.5t125 148.5t197.5 54
q83 0 143 -25.5t126 -83.5l-74 -73q-48 42 -92.5 60.5t-102.5 18.5q-130 0 -189.5 -86.5t-59.5 -228.5q0 -141 59 -227t190 -86q57 0 101.5 17.5t93.5 60.5z" />
    <glyph glyph-name="trademark" unicode="&#x2122;" horiz-adv-x="1718" 
d="M1599 584h-116v630l-209 -413h-115l-209 413v-630h-119v874h119l267 -530l266 530h116v-874zM678 1350h-244v-766h-119v766h-241v108h604v-108z" />
    <glyph glyph-name="acute" unicode="&#xb4;" horiz-adv-x="1024" 
d="M768 1530l-221 -313h-135l180 313h176z" />
    <glyph glyph-name="dieresis" unicode="&#xa8;" horiz-adv-x="1024" 
d="M821 1321q0 -38 -26 -65t-66 -27q-38 0 -65 27t-27 65q0 39 27.5 66.5t64.5 27.5q39 0 65.5 -27.5t26.5 -66.5zM387 1321q0 -38 -26 -65t-66 -27q-38 0 -65 27t-27 65q0 39 27.5 66.5t64.5 27.5q39 0 65.5 -27.5t26.5 -66.5z" />
    <glyph glyph-name="notequal" horiz-adv-x="1100" 
d="M993 309h-581l-211 -227l-95 82l138 145h-138v135h259l202 211h-461v138h582l213 227l92 -84l-137 -143h137v-138h-258l-200 -211h458v-135z" />
    <glyph glyph-name="AE" unicode="&#xc6;" horiz-adv-x="1888" 
d="M1776 0h-904v346h-505l-181 -346h-170l770 1458h990v-139h-750v-518h639v-139h-639v-523h750v-139zM872 481v838l-438 -838h438z" />
    <glyph glyph-name="Oslash" unicode="&#xd8;" horiz-adv-x="1335" 
d="M1176 729q0 -187 -6.5 -279.5t-36.5 -170t-95 -140.5q-151 -151 -372 -151q-145 0 -258 65l-68 -143h-133l102 213q-3 3 -4 4.5t-3 3.5t-4 3.5t-5 4.5q-53 54 -79.5 106.5t-39.5 122.5t-15.5 143.5t-2.5 217.5q0 187 6.5 279.5t35.5 168.5t95 142q151 151 373 151
q145 0 256 -63l69 141h133l-102 -213l16 -16q65 -63 95 -140.5t36.5 -170t6.5 -279.5zM1018 729q0 123 -1.5 184t-8.5 114t-21 91.5t-39 71.5l-479 -1004q93 -59 197 -59q71 0 137 27.5t115 76.5q46 48 66.5 103.5t27 143t6.5 251.5zM862 1272q-91 59 -196 59
q-72 0 -137.5 -26.5t-114.5 -77.5q-67 -69 -85 -164.5t-18 -333.5q0 -213 13 -306.5t59 -154.5z" />
    <glyph glyph-name="infinity" horiz-adv-x="1655" 
d="M1516 547q0 -92 -40 -166.5t-114.5 -117t-169.5 -42.5q-71 0 -131 22.5t-116 68.5t-118 122q-92 -112 -176 -163.5t-186 -51.5q-97 0 -171.5 43t-115.5 117.5t-41 167.5t41 167.5t115.5 117t171.5 42.5q66 0 126.5 -23.5t116 -69t119.5 -124.5q95 115 178 166t187 51
q96 0 170 -43t114 -117.5t40 -166.5zM1374 545q0 87 -52.5 138.5t-135.5 51.5q-49 0 -91.5 -23t-82 -62.5t-92.5 -104.5q53 -65 93 -105t81.5 -63t91.5 -23q83 0 135.5 52.5t52.5 138.5zM733 545q-84 102 -139 147t-125 45q-53 0 -97.5 -24t-68.5 -68.5t-24 -99.5t24 -99
t67 -68t99 -24q69 0 124.5 44.5t139.5 146.5z" />
    <glyph glyph-name="plusminus" unicode="&#xb1;" horiz-adv-x="1069" 
d="M963 592h-359v-363h-137v363h-361v137h361v358h137v-358h359v-137zM963 0h-857v137h857v-137z" />
    <glyph glyph-name="lessequal" horiz-adv-x="2103" 
d="M1765 1114l-1140 -1143l1054 2l-135 -135h-1155v1155l135 137l-2 -1056l1143 1140z" />
    <glyph glyph-name="greaterequal" horiz-adv-x="2103" 
d="M1714 -162h-1155l-135 135l1055 -2l-1141 1143l100 100l1143 -1140l-2 1056l135 -137v-1155z" />
    <glyph glyph-name="yen" unicode="&#xa5;" horiz-adv-x="1053" 
d="M1036 1458l-321 -637h205v-110h-261l-53 -109v-106h314v-113h-314v-383h-157v383h-316v113h316v106l-54 109h-262v110h205l-322 637h168l344 -698l342 698h166z" />
    <glyph glyph-name="mu" unicode="&#xb5;" horiz-adv-x="1149" 
d="M965 0h-148v113q-54 -61 -126 -93t-156 -32q-135 0 -218 75v-514h-147v1459h147v-621q0 -131 67 -199.5t181 -68.5q117 0 184.5 69.5t67.5 198.5v621h148v-1008z" />
    <glyph glyph-name="partialdiff" horiz-adv-x="1114" 
d="M928 500q0 -131 -24.5 -229.5t-92.5 -170.5q-107 -112 -279 -112q-86 0 -157.5 29.5t-122.5 82.5q-44 46 -71.5 110t-36.5 134.5t-9 155.5q0 139 24.5 237.5t92.5 167.5q47 48 115 78.5t151 30.5q80 0 143 -25.5t119 -93.5v143q0 83 -29 153t-91.5 111t-155.5 41
q-80 0 -129 -22.5t-113 -79.5l-94 94q54 50 102.5 79t105 42.5t132.5 13.5q201 0 310.5 -119.5t109.5 -322.5v-528zM780 500q0 110 -14.5 185t-60.5 124q-34 35 -79 54.5t-94 19.5q-103 0 -174 -74q-46 -51 -60.5 -128t-14.5 -181t14 -180t61 -127q69 -74 174 -74
q102 0 173 74q46 49 60.5 123t14.5 184z" />
    <glyph glyph-name="summation" horiz-adv-x="1128" 
d="M1024 -451h-907v134l413 897l-411 845v131h903v-139h-723l369 -768v-141l-373 -819h729v-140z" />
    <glyph glyph-name="product" horiz-adv-x="1425" 
d="M1214 -451h-155v1868h-692v-1868h-156v2007h1003v-2007z" />
    <glyph glyph-name="pi" horiz-adv-x="1210" 
d="M1004 0h-142v874h-512v-874h-143v1008h797v-1008z" />
    <glyph glyph-name="integral" horiz-adv-x="762" 
d="M684 1337h-78q-74 0 -111.5 -40.5t-37.5 -116.5v-1340q0 -67 -18 -118t-53.5 -88.5t-88.5 -58.5t-119 -21h-102v127h80q74 0 111.5 40.5t37.5 116.5v1340q0 88 33 152t95.5 99t150.5 35h100v-127z" />
    <glyph glyph-name="ordfeminine" unicode="&#xaa;" horiz-adv-x="920" 
d="M748 653h-119v74q-48 -45 -99 -64.5t-129 -19.5q-79 0 -131.5 17t-93.5 57q-61 64 -61 162q0 107 72 170t204 63h236v74q0 88 -46 130t-153 42q-74 0 -119 -20t-82 -70l-84 75q52 68 119 95.5t168 27.5q104 0 176 -31t107 -91t35 -148v-543zM627 938v82h-219
q-172 0 -172 -137q0 -68 42.5 -100.5t133.5 -32.5q61 0 102 10t74 41q39 36 39 137z" />
    <glyph glyph-name="ordmasculine" unicode="&#xba;" horiz-adv-x="932" 
d="M793 1055q0 -107 -20.5 -184t-78.5 -136q-90 -90 -229 -90t-229 90q-58 59 -78.5 136t-20.5 184q0 106 20.5 183t78.5 136q90 92 229 92t229 -92q58 -59 78.5 -136t20.5 -183zM672 1055q0 86 -12.5 146t-51.5 97q-58 58 -143 58q-87 0 -143 -58q-38 -36 -50 -96.5
t-12 -146.5q0 -85 12 -144.5t50 -97.5q57 -59 143 -59q84 0 143 59q39 39 51.5 98t12.5 144z" />
    <glyph glyph-name="Omega" horiz-adv-x="1331" 
d="M1176 0h-400v131q131 62 189 156q33 53 43 148t10 290q0 167 -6.5 254.5t-27.5 144.5t-66 103q-50 50 -115 77t-137 27q-71 0 -136 -26.5t-116 -77.5q-44 -45 -66.5 -103t-29.5 -144t-7 -255q0 -122 4.5 -204t17 -141t34.5 -93q34 -54 78 -89t110 -67v-131h-399v137h168
q-73 59 -113 137q-24 50 -37 123t-15.5 146.5t-2.5 185.5q0 187 6.5 279.5t35.5 168.5t95 142q151 151 373 151q221 0 372 -151q65 -63 95 -140.5t36.5 -170t6.5 -279.5q0 -112 -2.5 -184.5t-15 -145.5t-38.5 -125q-36 -73 -114 -137h170v-137z" />
    <glyph glyph-name="ae" unicode="&#xe6;" horiz-adv-x="1710" 
d="M1583 465h-682q0 -109 34.5 -187.5t102 -119.5t162.5 -41q83 0 140.5 26t121.5 88l103 -88q-51 -51 -105.5 -86t-120 -52t-147.5 -17q-251 0 -358 174q-47 -65 -99 -103.5t-117 -54.5t-153 -16q-102 0 -170 21.5t-115 70.5q-76 76 -76 205q0 135 90.5 212.5t258.5 77.5
h303v97q0 113 -60.5 167t-197.5 54q-95 0 -151.5 -25.5t-102.5 -89.5l-101 92q43 56 95 89.5t115.5 47t146.5 13.5q138 0 226 -39.5t128 -118.5q107 158 315 158q96 0 174 -33.5t131.5 -97.5t81 -153t27.5 -204v-67zM1436 575q-5 103 -31 168q-28 70 -92 111t-144 41
q-78 0 -141.5 -40.5t-93.5 -111.5q-18 -44 -24 -79t-9 -89h535zM756 356v109h-283q-225 0 -225 -178q0 -87 56 -129.5t175 -42.5q76 0 129 12.5t97 54.5q51 49 51 174z" />
    <glyph glyph-name="oslash" unicode="&#xf8;" 
d="M954 504q0 -88 -9.5 -156.5t-37 -132t-76.5 -113.5q-114 -114 -288 -114q-122 0 -215 55l-78 -133h-117l117 196q-47 48 -73.5 111t-36 131t-9.5 156q0 133 26 230.5t97 170.5q115 115 289 115q118 0 215 -55l80 133h114l-116 -197q69 -72 93.5 -169.5t24.5 -227.5z
M807 504q0 191 -49 272l-363 -612q64 -45 148 -45q112 0 184 74q50 50 65 125t15 186zM690 846q-63 43 -147 43q-107 0 -183 -74q-50 -51 -65.5 -128.5t-15.5 -182.5q0 -85 10 -153.5t41 -119.5z" />
    <glyph glyph-name="questiondown" unicode="&#xbf;" horiz-adv-x="1018" 
d="M582 911q0 -44 -29 -73t-74 -29q-43 0 -73.5 29.5t-30.5 72.5q0 44 30.5 73.5t73.5 29.5q20 0 40.5 -8t33.5 -21t21 -33.5t8 -40.5zM874 -88q0 -77 -29 -146t-81 -120.5t-124.5 -80t-150.5 -28.5t-148.5 27.5t-123.5 79t-82 121t-29 147.5q0 65 23.5 122.5t69.5 123.5
l168 241q36 55 36 119v82h148v-84q0 -59 -14.5 -101t-49.5 -91l-165 -238q-35 -51 -51.5 -88.5t-16.5 -85.5q0 -103 66.5 -172.5t168.5 -69.5q72 0 126 33.5t83 88.5t29 120h147z" />
    <glyph glyph-name="exclamdown" unicode="&#xa1;" horiz-adv-x="647" 
d="M408 911q0 -44 -30 -73t-73 -29q-44 0 -73 29t-29 73q0 45 29 74t73 29q21 0 40.5 -8t33 -21t21.5 -33.5t8 -40.5zM391 -451h-172l27 1049h119z" />
    <glyph glyph-name="logicalnot" unicode="&#xac;" horiz-adv-x="1069" 
d="M965 211h-138v281h-723v137h861v-418z" />
    <glyph glyph-name="radical" horiz-adv-x="1151" 
d="M1090 1319h-183l-432 -1319h-125l-334 1008h162l236 -729l377 1179h299v-139z" />
    <glyph glyph-name="florin" unicode="&#x192;" horiz-adv-x="825" 
d="M764 1335h-102q-136 0 -162 -147l-70 -402h215v-110h-235l-199 -1127h-148l199 1127h-201v110h222l69 406q22 118 102 194t203 76h107v-127z" />
    <glyph glyph-name="approxequal" horiz-adv-x="1104" 
d="M1004 750q-82 -82 -137 -111t-128 -29q-46 0 -89 14.5t-128 51.5q-54 25 -87 36t-73 11q-47 0 -80.5 -16t-91.5 -74l-90 90q84 84 138 112.5t127 28.5q50 0 97.5 -16.5t117.5 -48.5q99 -47 159 -47q33 0 56 6t51 26.5t65 57.5zM1004 387q-82 -82 -137.5 -110.5
t-127.5 -28.5q-47 0 -94.5 15t-122.5 48q-47 23 -82.5 36t-74.5 13q-46 0 -80 -17t-92 -75l-93 92q55 55 97.5 86t81 42.5t86.5 11.5q49 0 97.5 -15.5t119.5 -48.5q63 -28 92.5 -38.5t64.5 -10.5q46 0 80 17t92 75z" />
    <glyph glyph-name="Delta" horiz-adv-x="1235" 
d="M1217 0h-1201l537 1458h129zM1014 135l-396 1100l-397 -1100h793z" />
    <glyph glyph-name="guillemotleft" unicode="&#xab;" horiz-adv-x="1135" 
d="M975 119l-430 430l430 430v-184l-248 -246l248 -248v-182zM512 119l-430 430l430 430v-184l-246 -246l246 -248v-182z" />
    <glyph glyph-name="guillemotright" unicode="&#xbb;" horiz-adv-x="1135" 
d="M1053 549l-430 -430v182l245 248l-245 246v184zM590 549l-430 -430v182l248 248l-248 246v184z" />
    <glyph glyph-name="ellipsis" unicode="&#x2026;" horiz-adv-x="1550" 
d="M1386 111q0 -47 -34 -82t-82 -35q-47 0 -82 35t-35 82q0 48 35 82t82 34q31 0 57.5 -16t42.5 -42.5t16 -57.5zM891 111q0 -48 -34.5 -82.5t-82.5 -34.5t-82.5 35.5t-34.5 81.5q0 47 34.5 81.5t82.5 34.5t82.5 -33.5t34.5 -82.5zM395 111q0 -47 -34 -82t-82 -35
q-47 0 -82 35t-35 82q0 48 35 82t82 34q31 0 57.5 -16t42.5 -42.5t16 -57.5z" />
    <glyph glyph-name="nonbreakingspace" unicode="&#xa0;" horiz-adv-x="510" 
 />
    <glyph glyph-name="Agrave" unicode="&#xc0;" horiz-adv-x="1251" 
d="M1227 0h-166l-117 330h-637l-117 -330h-165l536 1458h131zM899 465l-270 770l-275 -770h545zM718 1600h-135l-221 313h176z" />
    <glyph glyph-name="Atilde" unicode="&#xc3;" horiz-adv-x="1251" 
d="M1227 0h-166l-117 330h-637l-117 -330h-165l536 1458h131zM899 465l-270 770l-275 -770h545zM940 1733q-105 -105 -195 -105q-38 0 -69 11t-76 36q-73 43 -115 43q-29 0 -54 -11.5t-67 -53.5l-76 73q63 64 106.5 84.5t88.5 20.5q43 0 74.5 -12t70.5 -37q65 -41 115 -41
q55 0 121 65z" />
    <glyph glyph-name="Otilde" unicode="&#xd5;" horiz-adv-x="1331" 
d="M1176 729q0 -187 -6.5 -279.5t-36.5 -170t-95 -140.5q-151 -151 -372 -151q-222 0 -373 151q-53 54 -79.5 106.5t-39.5 122.5t-15.5 143.5t-2.5 217.5q0 187 6.5 279.5t35.5 168.5t95 142q151 151 373 151q221 0 372 -151q65 -63 95 -140.5t36.5 -170t6.5 -279.5z
M1020 729q0 140 -3 208t-13 121.5t-30.5 93.5t-55.5 75q-49 50 -115 77t-137 27q-72 0 -137.5 -26.5t-114.5 -77.5q-67 -69 -85 -164.5t-18 -333.5q0 -237 18 -332.5t85 -165.5q49 -49 114.5 -76.5t137.5 -27.5q71 0 137 27.5t115 76.5q35 37 55.5 77t30.5 93.5t13 121
t3 206.5zM988 1733q-105 -105 -195 -105q-38 0 -69 11t-76 36q-73 43 -115 43q-29 0 -54 -11.5t-67 -53.5l-76 73q63 64 106.5 84.5t88.5 20.5q43 0 74.5 -12t70.5 -37q65 -41 115 -41q55 0 121 65z" />
    <glyph glyph-name="OE" unicode="&#x152;" horiz-adv-x="2025" 
d="M1911 0h-893v152q-66 -80 -158 -122t-196 -42q-220 0 -371 151q-50 52 -77.5 106.5t-40.5 123.5t-16 142.5t-3 217.5q0 187 7 279.5t36 169t94 141.5q151 151 371 151q110 0 198.5 -40.5t155.5 -122.5v151h889v-137h-733q0 -111 0.5 -186l1 -150t0.5 -184h622v-131h-622
q0 -174 -0.5 -287t-1.5 -246h737v-137zM1018 729q0 164 -6.5 251.5t-27.5 144.5t-66 102q-49 50 -115 77t-137 27q-72 0 -137.5 -26.5t-114.5 -77.5q-67 -69 -85 -164.5t-18 -333.5q0 -237 18 -332.5t85 -165.5q49 -49 114.5 -76.5t137.5 -27.5q71 0 137 27.5t115 76.5
q46 48 66.5 103.5t27 143t6.5 251.5z" />
    <glyph glyph-name="oe" unicode="&#x153;" horiz-adv-x="1763" 
d="M1634 465h-680q0 -166 77.5 -257t219.5 -91q84 0 143 26t122 88l100 -88q-53 -53 -105.5 -87t-116.5 -51t-147 -17q-255 0 -362 194q-48 -92 -138.5 -143t-203.5 -51q-173 0 -289 114q-49 50 -76 112t-37 132t-10 158q0 133 26 230.5t97 170.5q115 115 289 115
q75 0 141.5 -23t119.5 -68t83 -104q103 195 334 195q128 0 222 -59.5t142.5 -170.5t48.5 -258v-67zM1489 575q-3 65 -9.5 97.5t-23.5 70.5q-28 69 -92.5 110.5t-142.5 41.5q-79 0 -142.5 -40.5t-93.5 -111.5q-26 -65 -31 -168h535zM807 504q0 110 -15.5 186t-64.5 125
q-74 74 -184 74q-107 0 -183 -74q-50 -51 -65.5 -128.5t-15.5 -182.5q0 -106 15.5 -183t65.5 -128q74 -74 183 -74q112 0 184 74q50 50 65 125t15 186z" />
    <glyph glyph-name="emdash" unicode="&#x2013;" horiz-adv-x="1069" 
d="M963 483h-857v138h857v-138z" />
    <glyph glyph-name="endash" unicode="&#x2014;" horiz-adv-x="1872" 
d="M1716 483h-1560v140h1560v-140z" />
    <glyph glyph-name="quotedblleft" unicode="&#x201c;" horiz-adv-x="889" 
d="M709 1286h-181v172l181 162v-334zM358 1286h-178v172l178 162v-334z" />
    <glyph glyph-name="quotedblright" unicode="&#x201d;" horiz-adv-x="889" 
d="M709 1286l-181 -162v334h181v-172zM358 1286l-178 -162v334h178v-172z" />
    <glyph glyph-name="quoteleft" unicode="&#x2018;" horiz-adv-x="539" 
d="M358 1286h-178v172l178 162v-334z" />
    <glyph glyph-name="quoteright" unicode="&#x2019;" horiz-adv-x="539" 
d="M358 1286l-178 -162v334h178v-172z" />
    <glyph glyph-name="divide" unicode="&#xf7;" horiz-adv-x="1069" 
d="M651 920q0 -47 -34 -82t-82 -35q-47 0 -82 35t-35 82q0 48 35 82t82 34q31 0 57.5 -16t42.5 -42.5t16 -57.5zM965 483h-861v138h861v-138zM651 184q0 -46 -34 -81t-82 -35q-47 0 -82 35t-35 81q0 48 34.5 82.5t82.5 34.5q49 0 82.5 -34.5t33.5 -82.5z" />
    <glyph glyph-name="lozenge" horiz-adv-x="1329" 
d="M1192 721l-526 -746l-529 746l529 745zM1026 721l-360 518l-363 -518l363 -522z" />
    <glyph glyph-name="ydieresis" unicode="&#xff;" horiz-adv-x="915" 
d="M893 1008l-459 -1252q-29 -79 -72 -118q-71 -70 -196 -70h-64v131h45q75 0 108 27t58 98l72 196l-362 988h159l277 -809l274 809h160zM766 1321q0 -38 -26 -65t-66 -27q-38 0 -65 27t-27 65q0 39 27.5 66.5t64.5 27.5q39 0 65.5 -27.5t26.5 -66.5zM332 1321
q0 -38 -26 -65t-66 -27q-38 0 -65 27t-27 65q0 39 27.5 66.5t64.5 27.5q39 0 65.5 -27.5t26.5 -66.5z" />
    <glyph glyph-name="Ydieresis" unicode="&#x178;" horiz-adv-x="1053" 
d="M1036 1458l-430 -856v-602h-155v602l-435 856h168l344 -698l340 698h168zM835 1704q0 -38 -26 -65t-66 -27q-38 0 -65 27t-27 65q0 39 27.5 66.5t64.5 27.5q39 0 65.5 -27.5t26.5 -66.5zM401 1704q0 -38 -26 -65t-66 -27q-38 0 -65 27t-27 65q0 39 27.5 66.5t64.5 27.5
q39 0 65.5 -27.5t26.5 -66.5z" />
    <glyph glyph-name="fraction" horiz-adv-x="379" 
d="M592 1458l-682 -1458h-123l682 1458h123z" />
    <glyph glyph-name="currency" unicode="&#xa4;" horiz-adv-x="1352" 
d="M1192 133l-94 -94l-154 151q-121 -90 -268 -90q-151 0 -270 90l-152 -151l-94 94l151 152q-90 119 -90 270t90 270l-151 150l94 94l152 -149q117 88 270 88q150 0 268 -88l154 149l94 -94l-152 -150q90 -117 90 -270t-90 -270zM993 555q0 85 -42.5 158.5t-116 116
t-158.5 42.5t-159 -42t-117.5 -115.5t-43.5 -159.5q0 -132 94.5 -225.5t225.5 -93.5q85 0 159 43t116 117t42 159z" />
    <glyph glyph-name="guilsinglleft" unicode="&#x2039;" horiz-adv-x="672" 
d="M512 119l-430 430l430 430v-184l-246 -246l246 -248v-182z" />
    <glyph glyph-name="guilsinglright" unicode="&#x203a;" horiz-adv-x="672" 
d="M590 549l-430 -430v182l248 248l-248 246v184z" />
    <glyph glyph-name="fi" horiz-adv-x="1147" 
d="M989 1386q0 -27 -13.5 -50t-36.5 -36.5t-50 -13.5q-41 0 -72 30t-31 70q0 42 30.5 71.5t72.5 29.5q20 0 39.5 -8t32 -21.5t20.5 -32.5t8 -39zM963 0h-148v1001h148v-1001zM575 889h-217v-889h-147v889h-129v112h129v191q0 117 67 193.5t191 76.5h106v-127h-79
q-138 0 -138 -147v-187h217v-112z" />
    <glyph glyph-name="fl" horiz-adv-x="1233" 
d="M1174 0h-107q-85 0 -143 34.5t-86.5 95t-28.5 138.5v1190h147v-1184q0 -77 31 -112t105 -35h82v-127zM578 889h-216v-889h-147v889h-129v112h129v191q0 118 66 194t190 76h107v-127h-80q-136 0 -136 -147v-187h216v-112z" />
    <glyph glyph-name="daggerdbl" unicode="&#x2021;" horiz-adv-x="1239" 
d="M1087 -33h-397v-418h-147v418h-391v131h391v813h-391v131h391v416h147v-416h397v-131h-397v-813h397v-131z" />
    <glyph glyph-name="periodcentered" unicode="&#x2219;" horiz-adv-x="557" 
d="M395 547q0 -47 -34 -82t-82 -35q-47 0 -82 35t-35 82t35 81t82 34q31 0 58 -16t42.5 -42t15.5 -57z" />
    <glyph glyph-name="quotesinglbase" unicode="&#x201a;" horiz-adv-x="539" 
d="M358 0l-178 -162v334h178v-172z" />
    <glyph glyph-name="quotedblbase" unicode="&#x201e;" horiz-adv-x="889" 
d="M709 0l-181 -162v334h181v-172zM358 0l-178 -162v334h178v-172z" />
    <glyph glyph-name="perthousand" unicode="&#x2030;" horiz-adv-x="2415" 
d="M2284 262q0 -124 -78.5 -200t-198.5 -76q-79 0 -142 34t-98.5 97t-35.5 145v215q0 63 20 113t58 88t88.5 57t109.5 19q120 0 198.5 -76.5t78.5 -200.5v-215zM1575 262q0 -124 -78.5 -200t-198.5 -76q-79 0 -142 34t-98.5 97t-35.5 145v215q0 63 20 113t58 88t89 57
t109 19q120 0 198.5 -76.5t78.5 -200.5v-215zM1257 1458l-684 -1458h-122l684 1458h122zM686 981q0 -122 -78 -198t-198 -76q-121 0 -199 75.5t-78 198.5v215q0 82 35.5 145t98.5 97.5t143 34.5q121 0 198.5 -76.5t77.5 -200.5v-215zM2167 266v207q0 85 -39 131.5t-121 46.5
q-160 0 -160 -178v-207q0 -178 160 -178q81 0 120.5 47t39.5 131zM1458 266v207q0 85 -39 131.5t-121 46.5q-159 0 -159 -178v-207q0 -178 159 -178q81 0 120.5 47t39.5 131zM569 985v207q0 85 -39 131.5t-120 46.5q-160 0 -160 -178v-207q0 -176 160 -176q81 0 120 46
t39 130z" />
    <glyph glyph-name="Acircumflex" unicode="&#xc2;" horiz-adv-x="1251" 
d="M1227 0h-166l-117 330h-637l-117 -330h-165l536 1458h131zM899 465l-270 770l-275 -770h545zM944 1600h-142l-184 213l-184 -213h-142l256 313h140z" />
    <glyph glyph-name="Ecircumflex" unicode="&#xca;" horiz-adv-x="1229" 
d="M1116 0h-905v1458h905v-139h-749v-514h639v-139h-639v-527h749v-139zM967 1600h-142l-184 213l-184 -213h-142l256 313h140z" />
    <glyph glyph-name="Aacute" unicode="&#xc1;" horiz-adv-x="1251" 
d="M1227 0h-166l-117 330h-637l-117 -330h-165l536 1458h131zM899 465l-270 770l-275 -770h545zM874 1913l-221 -313h-135l180 313h176z" />
    <glyph glyph-name="Edieresis" unicode="&#xcb;" horiz-adv-x="1229" 
d="M1116 0h-905v1458h905v-139h-749v-514h639v-139h-639v-527h749v-139zM950 1704q0 -38 -26 -65t-66 -27q-38 0 -65 27t-27 65q0 39 27.5 66.5t64.5 27.5q39 0 65.5 -27.5t26.5 -66.5zM516 1704q0 -38 -26 -65t-66 -27q-38 0 -65 27t-27 65q0 39 27.5 66.5t64.5 27.5
q39 0 65.5 -27.5t26.5 -66.5z" />
    <glyph glyph-name="Egrave" unicode="&#xc8;" horiz-adv-x="1229" 
d="M1116 0h-905v1458h905v-139h-749v-514h639v-139h-639v-527h749v-139zM741 1600h-135l-221 313h176z" />
    <glyph glyph-name="Iacute" unicode="&#xcd;" horiz-adv-x="578" 
d="M367 0h-156v1458h156v-1458zM518 1913l-221 -313h-135l180 313h176z" />
    <glyph glyph-name="Icircumflex" unicode="&#xce;" horiz-adv-x="578" 
d="M367 0h-156v1458h156v-1458zM611 1600h-142l-184 213l-184 -213h-142l256 313h140z" />
    <glyph glyph-name="Idieresis" unicode="&#xcf;" horiz-adv-x="578" 
d="M367 0h-156v1458h156v-1458zM596 1704q0 -38 -26 -65t-66 -27q-38 0 -65 27t-27 65q0 39 27.5 66.5t64.5 27.5q39 0 65.5 -27.5t26.5 -66.5zM162 1704q0 -38 -26 -65t-66 -27q-38 0 -65 27t-27 65q0 39 27.5 66.5t64.5 27.5q39 0 65.5 -27.5t26.5 -66.5z" />
    <glyph glyph-name="Igrave" unicode="&#xcc;" horiz-adv-x="578" 
d="M367 0h-156v1458h156v-1458zM419 1600h-135l-221 313h176z" />
    <glyph glyph-name="Oacute" unicode="&#xd3;" horiz-adv-x="1331" 
d="M1176 729q0 -187 -6.5 -279.5t-36.5 -170t-95 -140.5q-151 -151 -372 -151q-222 0 -373 151q-53 54 -79.5 106.5t-39.5 122.5t-15.5 143.5t-2.5 217.5q0 187 6.5 279.5t35.5 168.5t95 142q151 151 373 151q221 0 372 -151q65 -63 95 -140.5t36.5 -170t6.5 -279.5z
M1020 729q0 140 -3 208t-13 121.5t-30.5 93.5t-55.5 75q-49 50 -115 77t-137 27q-72 0 -137.5 -26.5t-114.5 -77.5q-67 -69 -85 -164.5t-18 -333.5q0 -237 18 -332.5t85 -165.5q49 -49 114.5 -76.5t137.5 -27.5q71 0 137 27.5t115 76.5q35 37 55.5 77t30.5 93.5t13 121
t3 206.5zM922 1913l-221 -313h-135l180 313h176z" />
    <glyph glyph-name="Ocircumflex" unicode="&#xd4;" horiz-adv-x="1331" 
d="M1176 729q0 -187 -6.5 -279.5t-36.5 -170t-95 -140.5q-151 -151 -372 -151q-222 0 -373 151q-53 54 -79.5 106.5t-39.5 122.5t-15.5 143.5t-2.5 217.5q0 187 6.5 279.5t35.5 168.5t95 142q151 151 373 151q221 0 372 -151q65 -63 95 -140.5t36.5 -170t6.5 -279.5z
M1020 729q0 140 -3 208t-13 121.5t-30.5 93.5t-55.5 75q-49 50 -115 77t-137 27q-72 0 -137.5 -26.5t-114.5 -77.5q-67 -69 -85 -164.5t-18 -333.5q0 -237 18 -332.5t85 -165.5q49 -49 114.5 -76.5t137.5 -27.5q71 0 137 27.5t115 76.5q35 37 55.5 77t30.5 93.5t13 121
t3 206.5zM992 1600h-142l-184 213l-184 -213h-142l256 313h140z" />
    <glyph glyph-name="Ograve" unicode="&#xd2;" horiz-adv-x="1331" 
d="M1176 729q0 -187 -6.5 -279.5t-36.5 -170t-95 -140.5q-151 -151 -372 -151q-222 0 -373 151q-53 54 -79.5 106.5t-39.5 122.5t-15.5 143.5t-2.5 217.5q0 187 6.5 279.5t35.5 168.5t95 142q151 151 373 151q221 0 372 -151q65 -63 95 -140.5t36.5 -170t6.5 -279.5z
M1020 729q0 140 -3 208t-13 121.5t-30.5 93.5t-55.5 75q-49 50 -115 77t-137 27q-72 0 -137.5 -26.5t-114.5 -77.5q-67 -69 -85 -164.5t-18 -333.5q0 -237 18 -332.5t85 -165.5q49 -49 114.5 -76.5t137.5 -27.5q71 0 137 27.5t115 76.5q35 37 55.5 77t30.5 93.5t13 121
t3 206.5zM766 1600h-135l-221 313h176z" />
    <glyph glyph-name="Uacute" unicode="&#xda;" horiz-adv-x="1397" 
d="M1208 481q0 -109 -37.5 -198.5t-105.5 -155.5t-163 -102.5t-204 -36.5q-108 0 -201.5 36t-163.5 102.5t-106.5 156t-36.5 198.5v977h156v-964q0 -111 43.5 -193.5t124 -128t184.5 -45.5q105 0 186 45.5t125 129.5t44 192v964h155v-977zM954 1913l-221 -313h-135l180 313
h176z" />
    <glyph glyph-name="Ucircumflex" unicode="&#xdb;" horiz-adv-x="1397" 
d="M1208 481q0 -109 -37.5 -198.5t-105.5 -155.5t-163 -102.5t-204 -36.5q-108 0 -201.5 36t-163.5 102.5t-106.5 156t-36.5 198.5v977h156v-964q0 -111 43.5 -193.5t124 -128t184.5 -45.5q105 0 186 45.5t125 129.5t44 192v964h155v-977zM1024 1600h-142l-184 213
l-184 -213h-142l256 313h140z" />
    <glyph glyph-name="Ugrave" unicode="&#xd9;" horiz-adv-x="1397" 
d="M1208 481q0 -109 -37.5 -198.5t-105.5 -155.5t-163 -102.5t-204 -36.5q-108 0 -201.5 36t-163.5 102.5t-106.5 156t-36.5 198.5v977h156v-964q0 -111 43.5 -193.5t124 -128t184.5 -45.5q105 0 186 45.5t125 129.5t44 192v964h155v-977zM798 1600h-135l-221 313h176z" />
    <glyph glyph-name="dotlessi" horiz-adv-x="518" 
d="M332 0h-148v1008h148v-1008z" />
    <glyph glyph-name="circumflex" unicode="&#x2c6;" horiz-adv-x="1024" 
d="M838 1217h-142l-184 213l-184 -213h-142l256 313h140z" />
    <glyph glyph-name="tilde" unicode="&#x2dc;" horiz-adv-x="1024" 
d="M834 1350q-105 -105 -195 -105q-38 0 -69 11t-76 36q-73 43 -115 43q-29 0 -54 -11.5t-67 -53.5l-76 73q63 64 106.5 84.5t88.5 20.5q43 0 74.5 -12t70.5 -37q65 -41 115 -41q55 0 121 65z" />
    <glyph glyph-name="macron" unicode="&#xaf;" horiz-adv-x="1024" 
d="M821 1257h-618v117h618v-117z" />
    <glyph glyph-name="breve" horiz-adv-x="1024" 
d="M850 1489q-25 -285 -334 -285q-156 0 -243 72.5t-99 212.5h119q10 -78 69 -123t154 -45q94 0 152.5 44.5t68.5 123.5h113z" />
    <glyph glyph-name="dotaccent" horiz-adv-x="1024" 
d="M594 1298h-164v152h164v-152z" />
    <glyph glyph-name="ring" horiz-adv-x="1024" 
d="M754 1407q0 -65 -33 -121.5t-88 -89.5t-121 -33t-121 33t-88 89.5t-33 121.5q0 100 71 171t171 71q65 0 121 -32t88.5 -87.5t32.5 -122.5zM653 1407q0 58 -41.5 98.5t-99.5 40.5t-99.5 -40.5t-41.5 -98.5q0 -57 42 -99t99 -42t99 42t42 99z" />
    <glyph glyph-name="cedilla" unicode="&#xb8;" horiz-adv-x="1024" 
d="M641 -137l-121 -305h-162l146 305h137z" />
    <glyph glyph-name="hungarumlaut" horiz-adv-x="1024" 
d="M915 1530l-223 -313h-133l182 313h174zM582 1530l-222 -313h-135l183 313h174z" />
    <glyph glyph-name="ogonek" horiz-adv-x="1024" 
d="M662 -442h-160l-121 305h135z" />
    <glyph glyph-name="caron" horiz-adv-x="1024" 
d="M838 1530l-256 -313h-140l-256 313h142l184 -215l184 215h142z" />
  </font>
</defs>
</svg>
